Welcome Guest ( Log In | Register )

> Mental Torment - Ego:genesis (2021), Death/Doom Metal
post Sep 28 2021, 18:46:50
Post #1

Правь статус, ####!111
**************
Group: Металариец
Posts: 29,287
Releases: 21502
From: Г.Харьков
On Forums: 10 years 2 weeks
Thanks: 444041 time(s)
Unknown


(IMG:https://metalarea.org/images/audiocovers/2021_Sep/acov_tid356057_thumb.jpg)

*Artist: Mental Torment
*Album: Ego:genesis
*Year: 2021
*Genre: Death/Doom Metal
*Country: Ukraine (IMG:https://metalarea.org/forum/style_images/flags/Ukraine.png)
*Format: mp3@CBR320kbps
*Size: 121MB

Tracklist:
1. Acceptance 08:15
2. New Days Old Wounds 07:19
3. Untitled 07:21
4. Conclusion 07:34
5. The River 07:48
6. Black 07:01
7. Oblivion 05:54
******************************
Total playing time: 51:12




Extended info
Mykhailo Chuha Guitars (lead) (2009-2013, 2019-present)
See also: ex-Endlesshade
Ross Guitars (rhythm) (2009-2015, 2019-present)
Yaroslav Mosiievsky Keyboards (2009-2010, 2019-present)
Mad Vocals (2009-2015, 2019-present)
EP Drums (2011-2014), Bass (2019-present)
See also: Lord of Dust, ex-I Miss My Death, ex-Thy Despair



Technical info
(IMG:https://metalarea.org/images/spectrogram/2021_Sep/f0f80f1c6999b52ade4842fe845bc4ea.png)
Input File: 05 - The River.mp3
Channels : 2
Sample Rate : 44100
Precision : 16-bit
Duration : 00:07:48.09 = 20642637 samples = 35106.5 CDDA sectors
File Size : 19.3M
Bit Rate : 331k
Sample Encoding: MPEG audio (layer I, II or III)
Comments :
Title=The River
Artist=Mental Torment
Album=Ego:Genesis
Tracknumber=5/7
Year=2021
Discnumber=1/1



Register


Go to the top of the page
  Insert nick Quick quote
+Quote Post
 
Start new topic
Replies (1 - 5)
post Sep 29 2021, 00:56:04
Post #2

Пять Литров
*****
Group: Металариец
Posts: 457
Releases: 0
On Forums: 4 years 3 months
Thanks: 161 time(s)
Belarus


По ссылке на Bandcamp - старая гениальная работа коллектива. Что касаемо нового, то пропала монументальность. Зато, появилась истеричность и беспокойность. Скучно и хаотично. RIP.


Go to the top of the page
  Insert nick Quick quote
+Quote Post
post Sep 30 2021, 19:33:00
Post #3

Три Литра
***
Group: Завсегдатай
Posts: 279
Releases: 2
On Forums: 12 years 3 months
Thanks: 97 time(s)
Ukraine


Ну не все так печально...1,2 треки хороши и особенно 7. Oblivion - вообще красивая инструменталка... (IMG:style_emoticons/default/20.gif)
Go to the top of the page
  Insert nick Quick quote
+Quote Post
post Oct 2 2021, 05:53:47
Post #4

Восемь Литров
********
Group: Металариец
Posts: 893
Releases: 0
From: South Of Heaven
On Forums: 14 years 9 months
Thanks: 426 time(s)
Ukraine


Хороший Death/Doom , зачёт! (IMG:style_emoticons/default/metaler.gif)
Релизёру вери сенкс! (IMG:style_emoticons/default/9.gif) (IMG:style_emoticons/default/9.gif)
Go to the top of the page
  Insert nick Quick quote
+Quote Post
post Oct 4 2021, 00:20:54
Post #5

FOLK METAL FEVER
**************
Group: Металариец
Posts: 2,291
Releases: 6
From: Kyiv
On Forums: 14 years 6 months
Thanks: 300 time(s)
Ukraine


нудьга, Oblivion - норм.
Go to the top of the page
  Insert nick Quick quote
+Quote Post
post Oct 6 2021, 14:35:45
Post #6

Чёткий пацан из Автово...
Group Icon
Group: V.I.P
Posts: 9,358
Releases: 39
From: Город над вольной Невой...
On Forums: 15 years 11 months
Thanks: 4844 time(s)
Russian Federation


ЦИТАТА(GRAF @ 29th September 2021 - 02:56:04) *
Скучно и хаотично. RIP.

Боги мои, какой же ты недалёкий придурок)))

Совершенно не скучно, и не хаотично от слова совсем.
Вкратце про релиз: очень приятная и выверенная работа хороших музыкантов. Буду расслушивать дальше.
Go to the top of the page
  Insert nick Quick quote
+Quote Post

Reply to this topicStart new topic
2 User(s) are reading this topic (2 Guests and 0 Anonymous Users)
0 Members:

 



- Lo-Fi Version Support form
Copyrights and abuse reports form
Time is now: 25th May 2022 - 05:31:00