Welcome Guest ( Log In | Register )

Объявления

* gmail.com упорно продолжает считать почту с нас "unsolicited" и отбивает в том числе и письма активации, поэтому просьба использовать альтернативные почтовые ящики.
------------
* gmail.com continues reject all mail from us as "unsolicited" (activation mails too) therefore please use alternate mail servers.

> Forum rules / Правила раздела

Here go releases which can't go to New releases forums due lack of information, stolen links or incorrect data and just founded in other sites links with minimum info. Reissue of this releases through Add release form with added/corrected data, info and own links highly welcomed.

Сюда уходят релизы, не пропущенные в основные релизные форумы по причинам отсутствия, недостаточности или неверности/некорректности сопровождающей информации, содержащие ссылки, указывающие на файлы, залитые не автором темы, а так же просто найденные где-то ссылки с минимумом информации. Переоформление тем отсюда через форму Добавления релиза с перезаливкой ссылок крайне приветствуется.

> Mental Hippie Blood - Chosen [ep] (1994), Heavy Metal (D4)
post Oct 5 2021, 18:01:06
Post #1

Шесть Литров
******
Group: Металариец
Posts: 516
Releases: 12
On Forums: 11 years 11 months
Thanks: 459 time(s)
Russian Federation


(IMG:http://metalarea.org/images/audiocovers/2021_Oct/acov_tid356352_thumb.jpg)

*Artist: Mental Hippie Blood
*Album: Chosen [ep]
*Year: 1994
*Genre: Heavy Metal
*Country: Sweden (IMG:http://metalarea.org/forum/style_images/flags/Sweden.png)
*Format: mp3@CBR320kbps
*Size: 29MB

Tracklist:
1. Chosen
2. Golden Sun
3. Save Me
******************************
Total playing time: 11:08

Technical info
(IMG:http://metalarea.org/images/spectrogram/2021_Oct/c2055e964aafd8342d84e7a86d31abe7.png)
Input File: 01. Chosen.mp3
Channels : 2
Sample Rate : 44100
Precision : 16-bit
Duration : 00:04:05.04 = 10806352 samples = 18378.1 CDDA sectors
File Size : 9.93M
Bit Rate : 324k
Sample Encoding: MPEG audio (layer I, II or III)
Comments :
Title=Chosen
Artist=Mental Hippie Blood
Album=Chosen
Tracknumber=01/03
Year=1994
Genre=Heavy Metal



Register


Go to the top of the page
  Insert nick Quick quote
+Quote Post
 
Start new topic
Replies (1 - 1)
post Apr 7 2024, 17:50:05
Post #2

Шесть Литров
******
Group: Металариец
Posts: 516
Releases: 12
On Forums: 11 years 11 months
Thanks: 459 time(s)
Russian Federation


Обновил ссылку.
Go to the top of the page
  Insert nick Quick quote
+Quote Post

Reply to this topicStart new topic
2 User(s) are reading this topic (2 Guests and 0 Anonymous Users)
0 Members:

 



- Lo-Fi Version Support form
Copyrights and abuse reports form
Time is now: 21st May 2024 - 08:53:59