Welcome Guest ( Log In | Register )

> Afriqve - Afriqve Ii (2021), Depressive/Post-Black Metal
post Oct 5 2021, 20:33:04
Post #1

funeral doom fan
Group Icon
Group: S-moderation team
Posts: 5,415
Releases: 3068
From: Ростов-на-Дону
On Forums: 16 years 4 months
Thanks: 58979 time(s)
Russian Federation


(IMG:http://metalarea.org/images/audiocovers/2021_Oct/acov_tid356365_thumb.jpg)

*Artist: Afriqve
*Album: Afriqve Ii
*Year: 2021
*Genre: Depressive/Post-Black Metal
*Country: Sweden (IMG:http://metalarea.org/forum/style_images/flags/Sweden.png)
*Format: mp3@CBR320kbps
*Size: 108MB

Tracklist:
1. Change I 02:50
2. Unreqvited Love 10:12
3. She Makes Me Smile 10:47
4. Change II 04:08
5. Strange Feel 06:22
6. I Love You... 10:13
7. Change III 02:15
******************************
Total playing time: 46:47



Technical info
(IMG:http://metalarea.org/images/spectrogram/2021_Oct/5ab37453165d8fe7f817347052b959d5.png)
Input File: 05 - Strange Feel.mp3
Channels : 2
Sample Rate : 44100
Precision : 16-bit
Duration : 00:06:22.61 = 16873233 samples = 28696 CDDA sectors
File Size : 15.5M
Bit Rate : 323k
Sample Encoding: MPEG audio (layer I, II or III)
Comments :
Title=Strange Feel
Artist=Afriqve
Album=Afriqve II
Tracknumber=5
Year=2021
Genre=Metal



Register


Go to the top of the page
  Insert nick Quick quote
+Quote Post
 
Start new topic
Replies (1 - 2)
post Oct 7 2021, 06:50:48
Post #2

I hate you all
**************
Group: Металариец
Posts: 2,933
Releases: 93
From: Ukraine
On Forums: 15 years 2 weeks
Thanks: 7473 time(s)
Ukraine




Thanks:
(1) Aparo,
Go to the top of the page
  Insert nick Quick quote
+Quote Post
post Nov 27 2021, 09:29:40
Post #3

i listen to black metal
**************
Group: Металариец
Posts: 3,330
Releases: 144
From: Москва
On Forums: 15 years 5 months
Thanks: 2443 time(s)
Russian Federation


вот думаешь 21 век,21 год - у чувака 4 альбом уже ,никто ему не мешает творить.ан нет- опять гавно выпустил
Go to the top of the page
  Insert nick Quick quote
+Quote Post

Reply to this topicStart new topic
1 User(s) are reading this topic (1 Guests and 0 Anonymous Users)
0 Members:

 



- Lo-Fi Version Support form
Copyrights and abuse reports form
Time is now: 25th May 2022 - 06:01:11