Welcome Guest ( Log In | Register )

> Norse - Ascetic (2021), Black Metal (D5)
post Oct 7 2021, 16:12:40
Post #1

Маньяк
**********
Group: Металариец
Posts: 1,094
Releases: 934
On Forums: 1 year 7 months
Thanks: 24898 time(s)
United States


(IMG:http://metalarea.org/images/audiocovers/2021_Oct/acov_tid356423_thumb.jpg)

*Artist: Norse
*Album: Ascetic
*Year: 2021
*Genre: Black Metal
*Country: Australia (IMG:http://metalarea.org/forum/style_images/flags/Australia.png)
*Format: mp3@CBR320kbps
*Size: 102MB

Tracklist:
01. Ascetic 05:23
02. Parasite Warmongers 05:48
03. Fearless Filth Seeker 05:49
04. Accelerated Subversion 05:21
05. Radical Depression 05:00
06. Zero Insight 06:05
07. Blight 02:36
08. Useless 05:27
******************************
Total playing time: 41:29




Technical info
(IMG:http://metalarea.org/images/spectrogram/2021_Oct/2407fdfb07f6ecd9897e39498f7c8ed5.png)
Input File: 02. Parasite Warmongers.mp3
Channels : 2
Sample Rate : 44100
Precision : 16-bit
Duration : 00:05:48.00 = 15346800 samples = 26100 CDDA sectors
File Size : 14.1M
Bit Rate : 325k
Sample Encoding: MPEG audio (layer I, II or III)
Comments :
Title=Parasite Warmongers
Artist=Norse
Album=Ascetic
Tracknumber=02/08
Year=2021-10-08
Genre=Metal
Discnumber=1



Register


Go to the top of the page
  Insert nick Quick quote
+Quote Post
 
Start new topic
Replies (1 - 7)
post Oct 8 2021, 14:10:46
Post #2

практики шума одухотворяющего
**************
Group: Металариец
Posts: 3,603
Releases: 124
From: хроник дисмембера
On Forums: 4 years 10 months
Thanks: 5618 time(s)
Russian Federation


Нетипичная блэккоровая тригонометрия с елозаньем бешеными хорьками по ржавым струнам, судя по звуку. Возьму, ибо ждалъ.





Go to the top of the page
  Insert nick Quick quote
+Quote Post
post Oct 9 2021, 04:05:00
Post #3

Group: Подсевший
Posts: 37
Releases: 0
From: Ottawa
On Forums: 1 year 11 months
Thanks: 1 time(s)
Brazil


Nothing new here, just 20 minutes of boredom.
Go to the top of the page
  Insert nick Quick quote
+Quote Post
post Oct 9 2021, 13:51:39
Post #4

практики шума одухотворяющего
**************
Group: Металариец
Posts: 3,603
Releases: 124
From: хроник дисмембера
On Forums: 4 years 10 months
Thanks: 5618 time(s)
Russian Federation


ЦИТАТА(guidanner @ Oct 9 2021, 07:05:00) *
boredom


С семьей мы в зале Эрмитажа
и я смотрю себе на пол.
Родители вздыхают молча
Прозрев величием эпох.
А я. Ничё. Не понимаю.
Пойду козюльки пожую.


Thanks:
(1) Chasm,
Go to the top of the page
  Insert nick Quick quote
+Quote Post
post Oct 9 2021, 14:48:24
Post #5

дьявол, воплоти
**********
Group: Металариец
Posts: 1,171
Releases: 9
On Forums: 12 years 2 months
Thanks: 1577 time(s)
Ukraine


искусствоведов группа тихо
восторженно глядит на холст
и вдруг один седой и строгий
отчетливо сказал говно


Thanks:
(1) govno,
Go to the top of the page
  Insert nick Quick quote
+Quote Post
post Oct 17 2021, 13:36:53
Post #6

Правь статус, ####!111
**************
Group: Металариец
Posts: 5,522
Releases: 608
From: MoscoW
On Forums: 16 years 1 day
Thanks: 9433 time(s)
Russian Federation


NORSE:
Go to the top of the page
  Insert nick Quick quote
+Quote Post
post Oct 23 2021, 01:55:20
Post #7

Group: Подсевший
Posts: 12
Releases: 0
From: Австралия
On Forums: 13 years 8 months
Thanks: 3 time(s)
Australia


это хорошо. лучше, чем последний
Go to the top of the page
  Insert nick Quick quote
+Quote Post
post Apr 16 2022, 15:21:28
Post #8

NOUMENA
**************
Group: Металариец
Posts: 7,625
Releases: 12
On Forums: 13 years 3 weeks
Thanks: 3656 time(s)
Unknown


Постблэк чем то напоминающий последний Medico Peste, что по мне - таки очень прекрасно. Но какой то более аморфный чем у поляков. Поэтому пока - просто хорошо.
Go to the top of the page
  Insert nick Quick quote
+Quote Post

Reply to this topicStart new topic
2 User(s) are reading this topic (2 Guests and 0 Anonymous Users)
0 Members:

 



- Lo-Fi Version Support form
Copyrights and abuse reports form
Time is now: 3rd December 2022 - 01:23:00