Welcome Guest ( Log In | Register )

> Leishmaniasis - Chronicles Of Her Atrocious Rotten-Obsessed Mind (2021), Death Metal/Grindcore (D4)
post Oct 9 2021, 10:19:05
Post #1

Правь статус, ####!111
**************
Group: Металариец
Posts: 29,954
Releases: 22044
From: Г.Харьков
On Forums: 10 years 3 months
Thanks: 458701 time(s)
Unknown


(IMG:https://metalarea.org/images/audiocovers/2021_Oct/acov_tid356488_thumb.jpg)

*Artist: Leishmaniasis
*Album: Chronicles Of Her Atrocious Rotten-Obsessed Mind
*Year: 2021
*Genre: Death Metal/Grindcore
*Country: Colombia (IMG:https://metalarea.org/forum/style_images/flags/Colombia.png)
*Format: mp3@CBR320kbps
*Size: 103MB

Tracklist:
1. Prelude To Murder 00:54
2. The Astonishingly Atrocious 03:16
3. Penis Mutilation in Denial of Love 03:00
4. Kill The Pig 03:51
5. Worm of Death 02:54
6. Torture 03:10
7. Sadistic 03:22
8. Bloody Blade 02:38
9. Twisted Stew 03:04
10. Colombian Crimson Necktie 03:02
11. Drunken Song 03:22
12. Rivers of Blood 03:54
13. Rotten Head 03:33
14. Himen Imperforado (Condiloma Acuminado) (Revisited) 04:28
******************************
Total playing time: 44:28



Extended info
Nicolas Bermudez Guitars
See also: Under Threat, ex-Blaze Bayley, ex-Kilcrops, ex-Skulptor, ex-The Bounded
Ángel Niño Vocals
See also: Doppel Gänger, G2 Evolution, Loathsome Faith, Vein, ex-Violent Dreams
Hugo Amaya Bass, Vocals (1992-1998), Guitars, Bass (2006-present)
See also: ex-Deathless
Alejandro Rojas Drums (1992-1998, 2007-present)
See also: Soulburner, Under Threat, ex-Neurosis, ex-Skulptor


Technical info
(IMG:https://metalarea.org/images/spectrogram/2021_Oct/f1b748912d0deb06a401cc3c2d464d7c.png)
Input File: 07 - Sadistic.mp3
Channels : 2
Sample Rate : 44100
Precision : 16-bit
Duration : 00:03:22.46 = 8928486 samples = 15184.5 CDDA sectors
File Size : 8.16M
Bit Rate : 322k
Sample Encoding: MPEG audio (layer I, II or III)
Comments :
Title=Sadistic
Artist=Leishmaniasis
Album=Chronicles of her Atrocious Rotten-Obsessed Mind
Tracknumber=7/14
Year=2021



Register


Go to the top of the page
  Insert nick Quick quote
+Quote Post
 
Start new topic
Replies (1 - 1)
post Oct 10 2021, 07:35:51
Post #2

Мегаманьяк
***********
Group: Металариец
Posts: 1,740
Releases: 1
From: APATIN, SERBIA, АПАТИН, СЕРБИЯ
On Forums: 14 years 9 months
Thanks: 5180 time(s)



Flac

Register


Thanks:
Go to the top of the page
  Insert nick Quick quote
+Quote Post

Reply to this topicStart new topic
1 User(s) are reading this topic (1 Guests and 0 Anonymous Users)
0 Members:

 



- Lo-Fi Version Support form
Copyrights and abuse reports form
Time is now: 17th August 2022 - 09:41:54