Welcome Guest ( Log In | Register )

> Releases Upload / Добавление релизов

Добавить релиз тут / Click here to add release
Рекомендованные обменники / Recommended file shares

 
Reply to this topicStart new topic
> Necromonarchia Daemonum - Anathema Darkness (2021), Raw Black Metal/Dark Ambient (D)
post Oct 9 2021, 14:01:37
Post #1

funeral doom fan
Group Icon
Group: S-moderation team
Posts: 5,356
Releases: 3013
From: Ростов-на-Дону
On Forums: 15 years 11 months
Thanks: 57111 time(s)
Russian Federation


(IMG:http://metalarea.org/images/audiocovers/2021_Oct/acov_tid356513_thumb.jpg)

*Artist: Necromonarchia Daemonum
*Album: Anathema Darkness
*Year: 2021
*Genre: Raw Black Metal/Dark Ambient
*Country: Finland (IMG:http://metalarea.org/forum/style_images/flags/Finland.png)
*Format: mp3@CBR320kbps
*Size: 78MB

Tracklist:
1. Lucard Anno 01:56
2. Plagued Soil the Eucharists of the Goddess of Death 30:03
3. Children of Abaddon 02:09
******************************
Total playing time: 34:08

Technical info
(IMG:http://metalarea.org/images/spectrogram/2021_Oct/cb0a2ccf9df532a38b809a6ede243c69.png)
Input File: 03 - Children Of Abaddon.mp3
Channels : 2
Sample Rate : 44100
Precision : 16-bit
Duration : 00:02:10.13 = 5738557 samples = 9759.45 CDDA sectors
File Size : 5.21M
Bit Rate : 320k
Sample Encoding: MPEG audio (layer I, II or III)
Comments :
Title=Children Of Abaddon
Artist=Necromonarchia Daemonum
Album=Anathema Darkness
Tracknumber=03
Year=2021



Register


Go to the top of the page
  Insert nick Quick quote
+Quote Post
post Oct 9 2021, 16:59:05
Post #2

Три Литра
***
Group: Завсегдатай
Posts: 230
Releases: 0
From: Калуга
On Forums: 3 years 10 months
Thanks: 66 time(s)
Russian Federation


какая то странная субстанция с очень низким потусторонним фьюнеральным гроулом, сбивчивым не торопливым ритмом и всплывающими ни откуда клавишами, но затягивает.
Go to the top of the page
  Insert nick Quick quote
+Quote Post
post Oct 13 2021, 23:37:57
Post #3

Три Литра
***
Group: Завсегдатай
Posts: 231
Releases: 0
On Forums: 4 years 7 months
Thanks: 54 time(s)
Albania


Зверское молотилово с ядерным звуком и утробным вокалом. В хорошем смысле сыро и подвально. Даркэмбинта не обнаружено.
Go to the top of the page
  Insert nick Quick quote
+Quote Post

Reply to this topicStart new topic
1 User(s) are reading this topic (1 Guests and 0 Anonymous Users)
0 Members:

 



- Lo-Fi Version Support form
Copyrights and abuse reports form
Time is now: 4th December 2021 - 12:22:43