Welcome Guest ( Log In | Register )

> Releases Upload / Добавление релизов

Добавить релиз тут / Click here to add release
Рекомендованные обменники / Recommended file shares

> Coprolythe - Coprolythe (2021), Black Metal
post Oct 9 2021, 17:47:41
Post #1

Правь статус, ####!111
**************
Group: Металариец
Posts: 28,186
Releases: 20579
From: Г.Харьков
On Forums: 9 years 6 months
Thanks: 419186 time(s)
Unknown


(IMG:https://metalarea.org/images/audiocovers/2021_Oct/acov_tid356518_thumb.jpg)

*Artist: Coprolythe
*Album: Coprolythe
*Year: 2021
*Genre: Black Metal
*Country: France (IMG:https://metalarea.org/forum/style_images/flags/France.png)
*Format: mp3@CBR320kbps
*Size: 75MB

Tracklist:
1. Déni 05:21
2. Apophenia 04:21
3. Orchidoclaste 03:56
4. The Flood 04:09
5. Souffrance 04:36
6. Apostasia (Die Helle) 04:49
7. Quand les plus forts tombent 05:40
******************************
Total playing time: 32:52




Technical info
(IMG:https://metalarea.org/images/spectrogram/2021_Oct/8233ee199b4375db4c8512045bd6a93e.png)
Input File: 07 - Quand les plus forts tombent.mp3
Channels : 2
Sample Rate : 44100
Precision : 16-bit
Duration : 00:05:40.55 = 15018299 samples = 25541.3 CDDA sectors
File Size : 13.7M
Bit Rate : 322k
Sample Encoding: MPEG audio (layer I, II or III)
Comments :
Title=Quand les plus forts tombent
Artist=Coprolythe
Album=Coprolythe
Tracknumber=7/7
Year=2021



Register


Go to the top of the page
  Insert nick Quick quote
+Quote Post
 
Start new topic
Replies (1 - 3)
post Oct 11 2021, 16:05:20
Post #2

I hate you all
**************
Group: Металариец
Posts: 2,768
Releases: 85
From: Ukraine
On Forums: 14 years 6 months
Thanks: 7016 time(s)
Ukraine




Thanks:
(1) rominow,
Go to the top of the page
  Insert nick Quick quote
+Quote Post
post Oct 11 2021, 20:25:27
Post #3

Три Литра
***
Group: Завсегдатай
Posts: 216
Releases: 5
On Forums: 3 years 9 months
Thanks: 719 time(s)
Unknown


...Hey you, get your dirty FLAC over here right now!...

Register


Thanks:
Go to the top of the page
  Insert nick Quick quote
+Quote Post
post Oct 11 2021, 22:25:46
Post #4

Маньяк
**********
Group: Металариец
Posts: 1,369
Releases: 0
From: Днепр
On Forums: 7 years 4 months
Thanks: 729 time(s)
Unknown


вот так да бывает сейчас .Шедеврище во всем от мэна...
Go to the top of the page
  Insert nick Quick quote
+Quote Post

Reply to this topicStart new topic
2 User(s) are reading this topic (2 Guests and 0 Anonymous Users)
0 Members:

 



- Lo-Fi Version Support form
Copyrights and abuse reports form
Time is now: 6th December 2021 - 00:39:25