Welcome Guest ( Log In | Register )

 
Reply to this topicStart new topic
> Skull Incision - Mire [ep] (2020), Experimental Grindcore (D14)
post Oct 10 2021, 09:52:16
Post #1

Правь статус, ####!111
**************
Group: Металариец
Posts: 2,114
Releases: 265
From: Omsk, Siberia
On Forums: 13 years 3 months
Thanks: 5250 time(s)
Russian Federation


(IMG:http://metalarea.org/images/audiocovers/2021_Oct/acov_tid356535_thumb.jpg)

*Artist: Skull Incision
*Album: Mire [ep]
*Year: 2020
*Genre: Experimental Grindcore
*Country: United States (IMG:http://metalarea.org/forum/style_images/flags/United%20States.png)
*Format: mp3@CBR320kbps
*Size: 20MB

Tracklist:
1. Lithium 01:18
2. Green 01:09
3. Paper Cuts 00:56
4. Missing Child 01:33
5. Fantoft 01:11
6. Rotten 01:13
******************************
Total playing time: 7:22



(IMG:http://metalarea.org/images/youtube.png)

Extended info
All guitars, bass, drum programming and vocals by Jacob Lee (Elder Devil, Graven Maul, Hellish Form, Keeper [US, CA], PlasticBag FaceMask).


Technical info
(IMG:http://metalarea.org/images/spectrogram/2021_Oct/5c3c9dd77e72d45f0f5de548ddd259f7.png)
Input File: 02 Green.mp3
Channels : 2
Sample Rate : 44100
Precision : 16-bit
Duration : 00:01:09.02 = 3043738 samples = 5176.43 CDDA sectors
File Size : 3.01M
Bit Rate : 349k
Sample Encoding: MPEG audio (layer I, II or III)
Comments :
Title=Green
Artist=Skull Incision
Album=Mire
Tracknumber=2
Year=2020
Genre=Grindcore



Register


Go to the top of the page
  Insert nick Quick quote
+Quote Post

Reply to this topicStart new topic
1 User(s) are reading this topic (1 Guests and 0 Anonymous Users)
0 Members:

 



- Lo-Fi Version Support form
Copyrights and abuse reports form
Time is now: 6th July 2022 - 08:38:18