Welcome Guest ( Log In | Register )

 
Reply to this topicStart new topic
> Terrible & Mossen - Terrible/Mossen [split] (2020), Sludge/Doom Metal | Raw Black Metal
post Oct 11 2021, 20:35:02
Post #1

funeral doom fan
Group Icon
Group: S-moderation team
Posts: 5,415
Releases: 3068
From: Ростов-на-Дону
On Forums: 16 years 4 months
Thanks: 58979 time(s)
Russian Federation


(IMG:http://metalarea.org/images/audiocovers/2021_Oct/acov_tid356615_thumb.jpg)

*Artist: Terrible & Mossen
*Album: Terrible/Mossen [split]
*Year: 2020
*Genre: Sludge/Doom Metal | Raw Black Metal
*Country: Unknown (IMG:http://metalarea.org/forum/style_images/flags/Unknown.png) | Unknown (IMG:http://metalarea.org/forum/style_images/flags/Unknown.png)
*Format: mp3@CBR320kbps
*Size: 49MB

Tracklist:
Terrible:
1. Paranoid Skeletons 05:03
2. Awaits Us All 04:50

Mossen:
3. Rats in the Snow 04:23
4. The Gates Are Made of Steel 06:47
******************************
Total playing time: 21:03



Technical info
(IMG:http://metalarea.org/images/spectrogram/2021_Oct/c9c128ea77324889b3927ba962cc2e17.png)
Input File: 03 - Mossen - Rats In The Snow.mp3
Channels : 2
Sample Rate : 44100
Precision : 16-bit
Duration : 00:04:23.25 = 11609457 samples = 19744 CDDA sectors
File Size : 10.7M
Bit Rate : 324k
Sample Encoding: MPEG audio (layer I, II or III)
Comments :
Title=Rats In The Snow
Artist=Mossen
Album=Terrible - Mossen Split
Tracknumber=3
Year=2020
Discnumber=1/1



Register


Go to the top of the page
  Insert nick Quick quote
+Quote Post

Reply to this topicStart new topic
1 User(s) are reading this topic (1 Guests and 0 Anonymous Users)
0 Members:

 



- Lo-Fi Version Support form
Copyrights and abuse reports form
Time is now: 25th May 2022 - 04:41:53