Welcome Guest ( Log In | Register )

> Releases Upload / Добавление релизов

Добавить релиз тут / Click here to add release
Рекомендованные обменники / Recommended file shares

> Entrails Massacre & Sanctioned - Split [split] (2021), Grindcore | Grindcore (D)
post Oct 12 2021, 05:06:31
Post #1

Мегаманьяк
***********
Group: Металариец
Posts: 1,724
Releases: 559
On Forums: 11 years 2 weeks
Thanks: 12005 time(s)
Italy


(IMG:https://metalarea.org/images/audiocovers/2021_Oct/acov_tid356619_thumb.jpg)

*Artist: Entrails Massacre & Sanctioned
*Album: Split [split]
*Year: 2021
*Genre: Grindcore | Grindcore
*Country: Germany (IMG:https://metalarea.org/forum/style_images/flags/Germany.png) | Australia (IMG:https://metalarea.org/forum/style_images/flags/Australia.png)
*Format: mp3@CBR320kbps
*Size: 19MB

Tracklist:
Entrails Massacre:
1.2 Do List 00:58
2.The Dead Walk Among Us 01:04
3.Stick Your Tasteless Gossip Up Your Ass 01:08
4.Age Smells 00:46
Sanctioned:
5.Dysfunction 01:14
6.Injustice 01:22
7.Retaliate 00:57
******************************
Total playing time: 7:29



Technical info
(IMG:https://metalarea.org/images/spectrogram/2021_Oct/02e487b7bcbeae3d97df6481be111cca.png)
Input File: 01 Entrails Massacre - 2 Do List.mp3
Channels : 2
Sample Rate : 44100
Precision : 16-bit
Duration : 00:00:58.31 = 2571515 samples = 4373.32 CDDA sectors
File Size : 2.60M
Bit Rate : 356k
Sample Encoding: MPEG audio (layer I, II or III)
Comments :
Title=Entrails Massacre - 2 Do List
Artist=Entrails Massacre
Album=Split
Tracknumber=01
Year=2021
Genre=Grindcore



Register


Thanks:
Go to the top of the page
  Insert nick Quick quote
+Quote Post
 
Start new topic
Replies (1 - 1)
post Oct 13 2021, 04:44:09
Post #2

Мегаманьяк
***********
Group: Металариец
Posts: 1,724
Releases: 559
On Forums: 11 years 2 weeks
Thanks: 12005 time(s)
Italy


Whats wrong? (IMG:style_emoticons/default/23.gif)


Thanks:
(1) Occultas,
Go to the top of the page
  Insert nick Quick quote
+Quote Post

Reply to this topicStart new topic
1 User(s) are reading this topic (1 Guests and 0 Anonymous Users)
0 Members:

 



- Lo-Fi Version Support form
Copyrights and abuse reports form
Time is now: 3rd December 2021 - 04:07:10