Welcome Guest ( Log In | Register )

> И неформату есть предел.

Рэп/хип-хоп/шансон/поп удаляются. Для них есть свои порталы.

> Bergtatt - Lagnadsoger (2013), Folk Rock
post Oct 12 2021, 09:17:28
Post #1

Четыре Литра
****
Group: Металариец
Posts: 302
Releases: 0
From: минск сити
On Forums: 12 years 3 months
Thanks: 143 time(s)
Belarus


(IMG:http://metalarea.org/images/audiocovers/2021_Oct/acov_tid356620_thumb.jpg)

*Artist: Bergtatt
*Album: Lagnadsoger
*Year: 2013
*Genre: Folk Rock
*Country: Norway (IMG:http://metalarea.org/forum/style_images/flags/Norway.png)
*Format: mp3@CBR320kbps
*Size: 101MB

Tracklist:
1. Dømd 3:46
2. Bergtatt 2:49
3. Hjarterot 4:08
4. Huldra 4:52
5. Ravnene 2:10
6. To Systre 3:25
7. Svarte Auge 3:39
8. St. Hallvard 4:02
9. Avmakts Tid 3:39
10. Kappe Kvit 3:12
11. Halling 2:49
12. Gudmund Og Signelita 5:00
******************************
Total playing time: 43:31

Extended info
Почему то обделили вниманием данный релиз.


Bergtatt is a folkrock-band from the misty mountains of Norway. The band consists of 7 members with a diverse musical background.
Bergtatt gets a large part of its inspiration from old traditional Norwegian music and blend this with the power of rock. The result is a forceful and potent musical unit with a clear appeal to the present. Because the music is rooted in Norwegian traditional music, various folk instruments are heavily integrated in Bergtatt's sound, such as Hurdy Gurdy, Nykkelharpa (Keyed fiddle) and hardanger fiddle. The influences of Bergtatt's members range from early music, to traditional Nordic folk music, to rock/alternative rock and metal. Several of the members are musically educated.

-

Members:
Linn Katrin Øygard - Vocal
Marie Forr Klåpbakken - Hardanger fiddle
John Stenersen - Nøkkelharpe, Dreielire and Gitar
Rolf-Erik Solstad Karlsen - Guitar
Ole-Kristian Honerud - Bass
Svein Inge Bjørkedal - Trommer
Jens-Erik Aasbø - Orgel


Technical info
(IMG:http://metalarea.org/images/spectrogram/2021_Oct/2a4cbf53922a7313680d49125699c644.png)
Input File: bergtatt-avmakts-tid.mp3
Channels : 2
Sample Rate : 44100
Precision : 16-bit
Duration : 00:03:39.18 = 9665926 samples = 16438.6 CDDA sectors
File Size : 8.77M
Bit Rate : 320k
Sample Encoding: MPEG audio (layer I, II or III)
Comments :
Title=Avmakts Tid
Artist=Bergtatt
Album=Lagnadsoger
Tracknumber=9
Year=2013-10-04



Register


Go to the top of the page
  Insert nick Quick quote
+Quote Post
 
Start new topic
Replies (1 - 2)
post Oct 13 2021, 20:44:22
Post #2

De Mysteriis Dom Sathanas
**************
Group: Металариец
Posts: 4,302
Releases: 63
From: Doom
On Forums: 13 years 3 months
Thanks: 3673 time(s)
Russian Federation


Не Unformat разве?


Thanks:
Go to the top of the page
  Insert nick Quick quote
+Quote Post
post Oct 24 2021, 23:12:46
Post #3

Два Литра
**
Group: Завсегдатай
Posts: 179
Releases: 0
On Forums: 3 years 8 months
Thanks: 56 time(s)
Saint Helena


Совершенно шикарный альбом. В отношении таких релизов справедливо выражение "лучше поздно, чем никогда" (IMG:style_emoticons/default/pray.gif)
Go to the top of the page
  Insert nick Quick quote
+Quote Post

Reply to this topicStart new topic
2 User(s) are reading this topic (2 Guests and 0 Anonymous Users)
0 Members:

 



- Lo-Fi Version Support form
Copyrights and abuse reports form
Time is now: 26th October 2021 - 00:39:54