Welcome Guest ( Log In | Register )

> Massacre - Dead Beyond Death [single] (2021), Death Metal (D)
post Oct 12 2021, 12:21:33
Post #1

неделимое
**********
Group: Металариец
Posts: 1,198
Releases: 106
On Forums: 10 years 2 weeks
Thanks: 2290 time(s)
Russian Federation


(IMG:http://metalarea.org/images/audiocovers/2021_Oct/acov_tid356626_thumb.jpg)

*Artist: Massacre
*Album: Dead Beyond Death [single]
*Year: 2021
*Genre: Death Metal
*Country: United States (IMG:http://metalarea.org/forum/style_images/flags/United%20States.png)
*Format: mp3@CBR128kbps (IMG:http://metalarea.org/images/bit_low.gif)
*Size: 10MB

Tracklist:
1. Contes Du Macabre (Intro) 02:54
2. From Beyond 2021 04:35
3. War Machine (Anti Cimex Cover) 03:06
******************************
Total playing time: 10:35



Extended info
bandcamp


Technical info
(IMG:http://metalarea.org/images/spectrogram/2021_Oct/117ab98c7075e303b3a472dd6e1acd66.png)
Input File: 02 - From Beyond (2021 Version).mp3
Channels : 2
Sample Rate : 44100
Precision : 16-bit
Duration : 00:04:35.41 = 12145493 samples = 20655.6 CDDA sectors
File Size : 4.41M
Bit Rate : 128k
Sample Encoding: MPEG audio (layer I, II or III)



Register


Go to the top of the page
  Insert nick Quick quote
+Quote Post
 
Start new topic
Replies (1 - 6)
post Oct 13 2021, 13:55:05
Post #2

Пять Литров
*****
Group: Металариец
Posts: 420
Releases: 0
On Forums: 12 years 4 months
Thanks: 109 time(s)
Russian Federation


пожалуйста, сделайте мегу или медиафаюю
Go to the top of the page
  Insert nick Quick quote
+Quote Post
post Oct 13 2021, 14:47:56
Post #3

Forever Underground
**************
Group: Металариец
Posts: 8,950
Releases: 0
On Forums: 6 years 6 months
Thanks: 12496 time(s)
Unknown


Mirror
Register


Go to the top of the page
  Insert nick Quick quote
+Quote Post
post Oct 13 2021, 15:04:33
Post #4

Пять Литров
*****
Group: Металариец
Posts: 430
Releases: 0
From: Город Герой Москва!
On Forums: 15 years 1 month
Thanks: 20 time(s)
Russian Federation


довольно интересно!


Thanks:
(1) Occultas,
Go to the top of the page
  Insert nick Quick quote
+Quote Post
post Oct 13 2021, 20:47:47
Post #5

De Mysteriis Dom Sathanas
**************
Group: Металариец
Posts: 4,302
Releases: 63
From: Doom
On Forums: 13 years 3 months
Thanks: 3673 time(s)
Russian Federation


Ничего так - подожду выхода полноформатника Resurgence


Thanks:
(1) Occultas,
Go to the top of the page
  Insert nick Quick quote
+Quote Post
post Oct 15 2021, 18:32:27
Post #6

на аватаре не я
**************
Group: Металариец
Posts: 5,325
Releases: 9
From: "Самопровозглашенная ДНР" (с)
On Forums: 12 years 3 months
Thanks: 2788 time(s)
Russian Federation


Подождем подождальщиков качества.
Go to the top of the page
  Insert nick Quick quote
+Quote Post
post Oct 19 2021, 17:51:39
Post #7

0%Tolerance
**********
Group: Металариец
Posts: 1,393
Releases: 0
On Forums: 9 years 1 month
Thanks: 259 time(s)
Unknown


Не разобрал. Переслушивать нет желания. Полноформат возможно послушаю, когда появится.
Go to the top of the page
  Insert nick Quick quote
+Quote Post

Reply to this topicStart new topic
2 User(s) are reading this topic (2 Guests and 0 Anonymous Users)
0 Members:

 



- Lo-Fi Version Support form
Copyrights and abuse reports form
Time is now: 25th October 2021 - 23:51:48