Welcome Guest ( Log In | Register )

 
Reply to this topicStart new topic
> Rebel Priest - Lost In Tokyo [ep] (2021), Heavy Metal/Hard Rock
post Oct 12 2021, 15:24:56
Post #1

Правь статус, 616
**************
Group: Металариец
Posts: 8,185
Releases: 6494
From: 55°35’N 38°08’E
On Forums: 14 years 4 months
Thanks: 118173 time(s)
Russian Federation


(IMG:https://metalarea.org/images/audiocovers/2021_Oct/acov_tid356630_thumb.jpg)

*Artist: Rebel Priest
*Album: Lost In Tokyo [ep]
*Year: 2021
*Genre: Heavy Metal/Hard Rock
*Country: Canada (IMG:https://metalarea.org/forum/style_images/flags/Canada.png)
*Format: mp3@CBR320kbps
*Size: 36MB

Tracklist:
1.Lost in Tokyo 03:27
2.Back Alley Blues 03:09
3.Vulgar Romance 04:08
4.When the Whip Comes Down 04:23
******************************
Total playing time: 15:07



(IMG:https://metalarea.org/images/youtube.png)

Technical info
(IMG:https://metalarea.org/images/spectrogram/2021_Oct/e99dfc6cd881e612dc5163a3b590d7b4.png)
Input File: 01 Lost in Tokyo.mp3
Channels : 2
Sample Rate : 44100
Precision : 16-bit
Duration : 00:03:27.17 = 9135977 samples = 15537.4 CDDA sectors
File Size : 8.46M
Bit Rate : 327k
Sample Encoding: MPEG audio (layer I, II or III)
Comments :
Title=Lost in Tokyo
Artist=Rebel Priest
Album=Lost In Tokyo EP
Tracknumber=1/4
Year=2021
Genre=Metal



Register


Go to the top of the page
  Insert nick Quick quote
+Quote Post

Reply to this topicStart new topic
1 User(s) are reading this topic (1 Guests and 0 Anonymous Users)
0 Members:

 



- Lo-Fi Version Support form
Copyrights and abuse reports form
Time is now: 27th November 2022 - 02:21:20