Welcome Guest ( Log In | Register )

 
Reply to this topicStart new topic
> Vampyric & Tarmblod - Allied Under Black Light [split] (2021), Raw Black Metal | Raw Black Metal
post Oct 12 2021, 16:17:42
Post #1

Правь статус, 616
**************
Group: Металариец
Posts: 7,438
Releases: 5831
From: 55°35’N 38°08’E
On Forums: 13 years 10 months
Thanks: 108159 time(s)
Russian Federation


(IMG:https://metalarea.org/images/audiocovers/2021_Oct/acov_tid356631_thumb.jpg)

*Artist: Vampyric & Tarmblod
*Album: Allied Under Black Light [split]
*Year: 2021
*Genre: Raw Black Metal | Raw Black Metal
*Country: United States (IMG:https://metalarea.org/forum/style_images/flags/United%20States.png) | Australia (IMG:https://metalarea.org/forum/style_images/flags/Australia.png)
*Format: mp3@CBR320kbps
*Size: 71MB

Tracklist:
Vampyric:
1.Intro 03:05
2.Black Star in a Dying Constellation 04:11
3.Scouring of Heaven 04:30
4.Outro 03:10

Tarmblod:
5.Reign of Hell's Hatred 03:39
6.Imprisoned in Mold 03:08
7.Blood, Fear, Alone in Darkness 05:25
******************************
Total playing time: 27:08




Technical info
(IMG:https://metalarea.org/images/spectrogram/2021_Oct/899d7da712502548ab2a90dccf56a609.png)
Input File: 02 Vampyric - Black Star in a Dying Constellation.mp3
Channels : 2
Sample Rate : 44100
Precision : 16-bit
Duration : 00:04:11.50 = 11091018 samples = 18862.3 CDDA sectors
File Size : 10.3M
Bit Rate : 328k
Sample Encoding: MPEG audio (layer I, II or III)
Comments :
Title=Black Star in a Dying Constellation
Artist=Vampyric
Album=Allied Under Black Light
Tracknumber=2
Year=2021
Genre=Black Metal



Register


Go to the top of the page
  Insert nick Quick quote
+Quote Post

Reply to this topicStart new topic
2 User(s) are reading this topic (2 Guests and 0 Anonymous Users)
0 Members:

 



- Lo-Fi Version Support form
Copyrights and abuse reports form
Time is now: 29th May 2022 - 07:15:27