Welcome Guest ( Log In | Register )

> Releases Upload / Добавление релизов

Добавить релиз тут / Click here to add release
Рекомендованные обменники / Recommended file shares

 
Reply to this topicStart new topic
> Snakeblade - The Curse (2021), Melodic Black Metal
post Oct 12 2021, 17:28:55
Post #1

Правь статус, ####!111
**************
Group: Металариец
Posts: 28,179
Releases: 20563
From: Г.Харьков
On Forums: 9 years 6 months
Thanks: 418887 time(s)
Unknown


(IMG:https://metalarea.org/images/audiocovers/2021_Oct/acov_tid356634_thumb.jpg)

*Artist: Snakeblade
*Album: The Curse
*Year: 2021
*Genre: Melodic Black Metal
*Country: Canada (IMG:https://metalarea.org/forum/style_images/flags/Canada.png)
*Format: mp3@CBR320kbps
*Size: 101MB

Tracklist:
01. Destiny (Intro) 01:42
02. Rotten Souls 06:48
03. Harvester 03:35
04. Dreams of Aida 01:53
05. The Red Mage's Seduction 06:01
06. Foul Sorcery of Flame and Shadow 05:04
07. Godswood 02:28
08. Born Among Salt and Smoke 05:46
09. Archways 03:05
10. Exile, Outlaw... The Essence 06:34
******************************
Total playing time: 42:56




Extended info
Mike Redston All instruments, Vocals


Technical info
(IMG:https://metalarea.org/images/spectrogram/2021_Oct/e978b9ac16de05eebcbb8d5aa53bc7ac.png)
Input File: 08 - Born Among Salt and Smoke.mp3
Channels : 2
Sample Rate : 44100
Precision : 16-bit
Duration : 00:05:46.00 = 15258600 samples = 25950 CDDA sectors
File Size : 14.0M
Bit Rate : 324k
Sample Encoding: MPEG audio (layer I, II or III)
Comments :
Title=Born Among Salt and Smoke
Artist=Snakeblade
Album=The Curse
Tracknumber=8
Year=2021-10-13
Genre=Melodic Black Metal
Discnumber=1



Register


Go to the top of the page
  Insert nick Quick quote
+Quote Post

Reply to this topicStart new topic
1 User(s) are reading this topic (1 Guests and 0 Anonymous Users)
0 Members:

 



- Lo-Fi Version Support form
Copyrights and abuse reports form
Time is now: 5th December 2021 - 00:03:50