Welcome Guest ( Log In | Register )

> Releases Upload / Добавление релизов

Добавить релиз тут / Click here to add release
Рекомендованные обменники / Recommended file shares

 
Reply to this topicStart new topic
> Billakeez - Severed Extremities [ep] (2021), Death Metal
post Oct 12 2021, 17:32:21
Post #1

Правь статус, ####!111
**************
Group: Металариец
Posts: 4,355
Releases: 3996
From: Одесса
On Forums: 13 years 4 months
Thanks: 44181 time(s)
Ukraine


(IMG:http://metalarea.org/images/audiocovers/2021_Oct/acov_tid356635_thumb.jpg)

*Artist: Billakeez
*Album: Severed Extremities [ep]
*Year: 2021
*Genre: Death Metal
*Country: United Kingdom (IMG:http://metalarea.org/forum/style_images/flags/United%20Kingdom.png)
*Format: mp3@CBR320kbps
*Size: 51MB

Tracklist:
1. Too Fast For Bastards 03:54
2. Body of Vengeance 04:46
3. Jixaw 03:22
4. The Plumber 03:15
5. The Flood 03:48
6. Fuck Armageddon This Is Hell 02:36
******************************
Total playing time: 21:41



Technical info
(IMG:http://metalarea.org/images/spectrogram/2021_Oct/597986d788d5900f5c084064f807c775.png)
Input File: 06. Fuck Armageddon This Is Hell.mp3
Channels : 2
Sample Rate : 44100
Precision : 16-bit
Duration : 00:02:36.28 = 6891772 samples = 11720.7 CDDA sectors
File Size : 6.25M
Bit Rate : 320k
Sample Encoding: MPEG audio (layer I, II or III)
Comments :
Title=Fuck Armageddon This Is Hell
Artist=Billakeez
Album=Severed Extremities (EP)
Tracknumber=6
Year=2021
Genre=22



Register


Go to the top of the page
  Insert nick Quick quote
+Quote Post

Reply to this topicStart new topic
1 User(s) are reading this topic (1 Guests and 0 Anonymous Users)
0 Members:

 



- Lo-Fi Version Support form
Copyrights and abuse reports form
Time is now: 26th October 2021 - 00:48:51