Welcome Guest ( Log In | Register )

> Releases Upload / Добавление релизов

Добавить релиз тут / Click here to add release
Рекомендованные обменники / Recommended file shares

> Perpetual Etude - Now Is The Time (2021), Melodic Heavy Metal
post Oct 12 2021, 18:25:28
Post #1

Шесть Литров
******
Group: Металариец
Posts: 567
Releases: 496
On Forums: 5 months 2 weeks
Thanks: 12359 time(s)
United States


(IMG:https://metalarea.org/images/audiocovers/2021_Oct/acov_tid356637_thumb.jpg)

*Artist: Perpetual Etude
*Album: Now Is The Time
*Year: 2021
*Genre: Melodic Heavy Metal
*Country: Sweden (IMG:https://metalarea.org/forum/style_images/flags/Sweden.png)
*Format: mp3@CBR320kbps
*Size: 91MB

Tracklist:
01. I've Got the Power
02. Show Me
03. Straight Through The Heart
04. Once We Were One
05. Hell Fire Burn
06. Now Is The Time
07. Sail Away
08. Our Love
09. Ignition (Japan Bonus Track)
******************************
Total playing time: 34:23



Technical info
(IMG:https://metalarea.org/images/spectrogram/2021_Oct/824313b3e3e588522cf71d36b36e5cdc.png)
Input File: 02. Show Me.mp3
Channels : 2
Sample Rate : 44100
Precision : 16-bit
Duration : 00:04:11.11 = 11073775 samples = 18833 CDDA sectors
File Size : 10.5M
Bit Rate : 334k
Sample Encoding: MPEG audio (layer I, II or III)
Comments :
Title=Show Me
Artist=Perpetual Etude
Album=Now Is The Time [Japan Edition]
Tracknumber=02/09
Year=2021
Discnumber=1/1



Register


Go to the top of the page
  Insert nick Quick quote
+Quote Post
 
Start new topic
Replies (1 - 3)
post Oct 13 2021, 12:22:40
Post #2

hearer & reader
**************
Group: Металариец
Posts: 9,907
Releases: 177
From: Moscow
On Forums: 14 years 1 month
Thanks: 11312 time(s)
Russian Federation


Без превью - это лень или спешка?


Это мелодичный хард-рок для девочек.


Thanks:
Go to the top of the page
  Insert nick Quick quote
+Quote Post
post Oct 13 2021, 15:47:29
Post #3

Добрый язычник
*********
Group: Металариец
Posts: 955
Releases: 11
From: Санкт-Петербург
On Forums: 15 years 10 months
Thanks: 316 time(s)
Russian Federation


QUOTE(AHBAnep @ Oct 13 2021, 17:22:40) *
...
Это мелодичный хард-рок для девочек.

Ага, какой там хэви. Очень все слащаво как то и без драйва.
Go to the top of the page
  Insert nick Quick quote
+Quote Post
post Yesterday, 12:45:57
Post #4

Шесть Литров
******
Group: Металариец
Posts: 567
Releases: 496
On Forums: 5 months 2 weeks
Thanks: 12359 time(s)
United States


ЦИТАТА(AHBAnep @ Oct 13 2021, 12:22:40) *
Без превью - это лень или спешка?

Это лень, а еще я не пишу лайн ап.

читают эту тему (гостей: 3, скрытых пользователей: 1)
Игарек, ну шо там все перелил с генты? маладец
Go to the top of the page
  Insert nick Quick quote
+Quote Post

Reply to this topicStart new topic
2 User(s) are reading this topic (2 Guests and 0 Anonymous Users)
0 Members:

 



- Lo-Fi Version Support form
Copyrights and abuse reports form
Time is now: 15th October 2021 - 22:07:08