Welcome Guest ( Log In | Register )

> Releases Upload / Добавление релизов

Добавить релиз тут / Click here to add release
Рекомендованные обменники / Recommended file shares

 
Reply to this topicStart new topic
> Guadaña - Erytheia (2021), Heavy Metal
post Oct 12 2021, 18:30:46
Post #1

Правь статус, ####!111
**************
Group: Металариец
Posts: 28,179
Releases: 20563
From: Г.Харьков
On Forums: 9 years 6 months
Thanks: 418889 time(s)
Unknown


(IMG:https://metalarea.org/images/audiocovers/2021_Oct/acov_tid356638_thumb.jpg)

*Artist: Guadaña
*Album: Erytheia
*Year: 2021
*Genre: Heavy Metal
*Country: Spain (IMG:https://metalarea.org/forum/style_images/flags/Spain.png)
*Format: mp3@CBR320kbps
*Size: 110MB

Tracklist:
01. Retar al Abismo 5:23
02. Guerreros de la Tempestad 4:03
03. Sangre de Mi Sangre 4:27
04. Nueva Generacion 4:55
05. Erytheia 4:51
06. Cuenta Atras 5:16
07. Resurgir 4:52
08. Una Aventura Mas 4:40
09. La Casa de los Espejos 10:22
******************************
Total playing time: 48:49



Extended info
Juanma Patrón Guitars
See also: ex-Atalaya, ex-Sphinx
Pablo Casas Drums (2010-present)
See also: ex-Huma, ex-Icaro
Gloria Romero Vocals (2010-present)
See also: ex-Huma
Salvador Sánchez Vocals (2010-present)
See also: ex-Huma
Fran Tineo Bass (2021-present)


Technical info
(IMG:https://metalarea.org/images/spectrogram/2021_Oct/84370f1f92827461082f3cbf854aaf39.png)
Input File: 07 - Resurgir.mp3
Channels : 2
Sample Rate : 44100
Precision : 16-bit
Duration : 00:04:51.86 = 12870850 samples = 21889.2 CDDA sectors
File Size : 11.7M
Bit Rate : 320k
Sample Encoding: MPEG audio (layer I, II or III)
Comments :
Title=Resurgir
Artist=Guadaña
Album=Erytheia
Tracknumber=7/9
Year=2021



Register


Go to the top of the page
  Insert nick Quick quote
+Quote Post

Reply to this topicStart new topic
1 User(s) are reading this topic (1 Guests and 0 Anonymous Users)
0 Members:

 



- Lo-Fi Version Support form
Copyrights and abuse reports form
Time is now: 5th December 2021 - 00:31:30