Welcome Guest ( Log In | Register )

> Releases Upload / Добавление релизов

Добавить релиз тут / Click here to add release
Рекомендованные обменники / Recommended file shares

 
Reply to this topicStart new topic
> Sable Gown - Sibylline Pareunia [demo] (2021), Black Metal
post Oct 12 2021, 18:37:18
Post #1

Правь статус, ####!616
**************
Group: Металариец
Posts: 7,184
Releases: 5615
From: 55°35’N 38°08’E
On Forums: 13 years 3 months
Thanks: 102346 time(s)
Unknown


(IMG:https://metalarea.org/images/audiocovers/2021_Oct/acov_tid356639_thumb.jpg)

*Artist: Sable Gown
*Album: Sibylline Pareunia [demo]
*Year: 2021
*Genre: Black Metal
*Country: United States (IMG:https://metalarea.org/forum/style_images/flags/United%20States.png)
*Format: mp3@CBR320kbps
*Size: 43MB

Tracklist:
1.Behind Veiled Dreams 09:16
2.Sibylline Pareunia 09:25
******************************
Total playing time: 18:41



Technical info
(IMG:https://metalarea.org/images/spectrogram/2021_Oct/3aa058c5351d87100fa712c3312f7a90.png)
Input File: 01 Behind Veiled Dreams.mp3
Channels : 2
Sample Rate : 44100
Precision : 16-bit
Duration : 00:09:16.52 = 24542532 samples = 41739 CDDA sectors
File Size : 22.3M
Bit Rate : 321k
Sample Encoding: MPEG audio (layer I, II or III)
Comments :
Title=Behind Veiled Dreams
Artist=Sable Gown
Album=Sibylline Pareunia
Tracknumber=1
Year=2021
Genre=Black Metal



Register


Go to the top of the page
  Insert nick Quick quote
+Quote Post

Reply to this topicStart new topic
2 User(s) are reading this topic (2 Guests and 0 Anonymous Users)
0 Members:

 



- Lo-Fi Version Support form
Copyrights and abuse reports form
Time is now: 15th October 2021 - 22:31:19