Welcome Guest ( Log In | Register )

> Releases Upload / Добавление релизов

Добавить релиз тут / Click here to add release
Рекомендованные обменники / Recommended file shares

> Albionic Hermeticism - Psalms To The Father (2021), Black Metal (D6)
post Oct 12 2021, 20:12:02
Post #1

Пять Литров
*****
Group: Металариец
Posts: 439
Releases: 77
From: italy
On Forums: 13 years 3 months
Thanks: 1708 time(s)
Italy


(IMG:http://metalarea.org/images/audiocovers/2021_Oct/acov_tid356640_thumb.jpg)

*Artist: Albionic Hermeticism
*Album: Psalms To The Father
*Year: 2021
*Genre: Black Metal
*Country: United Kingdom (IMG:http://metalarea.org/forum/style_images/flags/United%20Kingdom.png)
*Format: mp3@CBR320kbps
*Size: 91MB

Tracklist:
1. Hermes Ofer Lang Mynd ... 04:48
2. At The Bole Of The Knightwood Oak ... 05:49
3. The Path Of Realisation 07:37
4. Guided Meditation In The Vale 03:34
5. Sealed Forever... Atop Glyder Fawr 05:53
6. The Narrow House Of Death 02:20
7. Lícthenung Blót 10:37
******************************
Total playing time: 40:38



Technical info
(IMG:http://metalarea.org/images/spectrogram/2021_Oct/37be5ed90a9bd1b158334d2e38a771cc.png)
Input File: 02 At the Bole of the Knightwood Oak.mp3
Channels : 2
Sample Rate : 44100
Precision : 16-bit
Duration : 00:05:49.20 = 15399764 samples = 26190.1 CDDA sectors
File Size : 14.1M
Bit Rate : 322k
Sample Encoding: MPEG audio (layer I, II or III)
Comments :
Title=At The Bole Of The Knightwood Oak
Artist=Albionic Hermeticism
Album=Psalms To The Father
Tracknumber=2
Year=2021
Genre=Black Metal



Register


Go to the top of the page
  Insert nick Quick quote
+Quote Post
 
Start new topic
Replies (1 - 1)
post Oct 13 2021, 09:28:28
Post #2

Три Литра
***
Group: Завсегдатай
Posts: 295
Releases: 1
From: минск сити
On Forums: 12 years 3 months
Thanks: 133 time(s)
Belarus


Судя по бэндкэмпу это шумно, злобно, скорострельно. Но есть мелодика и медленные вставки с какими то восточными мотивами прям. Надо качать и полностью заценить. Спасибо релизеру.


Thanks:
(1) murian,
Go to the top of the page
  Insert nick Quick quote
+Quote Post

Reply to this topicStart new topic
2 User(s) are reading this topic (2 Guests and 0 Anonymous Users)
0 Members:

 



- Lo-Fi Version Support form
Copyrights and abuse reports form
Time is now: 15th October 2021 - 21:48:54