Welcome Guest ( Log In | Register )

> И неформату есть предел.

Рэп/хип-хоп/шансон/поп удаляются. Для них есть свои порталы.

> Xasthur & Casket Of Dreams - The Hallucination Tunnels [collaboration] (2021), Dungeon Synth | Dungeon Synth (D)
post Oct 12 2021, 20:24:43
Post #1

funeral doom fan
Group Icon
Group: S-moderation team
Posts: 5,101
Releases: 2759
From: Ростов-на-Дону
On Forums: 15 years 9 months
Thanks: 52281 time(s)
Russian Federation


(IMG:http://metalarea.org/images/audiocovers/2021_Oct/acov_tid356642_thumb.jpg)

*Artist: Xasthur & Casket Of Dreams
*Album: The Hallucination Tunnels [collaboration]
*Year: 2021
*Genre: Dungeon Synth | Dungeon Synth
*Country: United States (IMG:http://metalarea.org/forum/style_images/flags/United%20States.png) | Canada (IMG:http://metalarea.org/forum/style_images/flags/Canada.png)
*Format: mp3@CBR320kbps
*Size: 89MB

Tracklist:
1. The Crystal Curse 07:07
2. Disorienting Within Casket Walls 07:50
3. Dreaded Survival 06:36
4. Elixir of Vampiric Minds 06:45
5. Mirrored Waters 05:57
6. Soul Hex 04:45
******************************
Total playing time: 39:00



Technical info
(IMG:http://metalarea.org/images/spectrogram/2021_Oct/41b6f3b3637220174760cb6fa62f091c.png)
Input File: 01 - The Crystal Curse.mp3
Channels : 2
Sample Rate : 44100
Precision : 16-bit
Duration : 00:07:07.99 = 18874359 samples = 32099.2 CDDA sectors
File Size : 17.1M
Bit Rate : 320k
Sample Encoding: MPEG audio (layer I, II or III)
Comments :
Title=The Crystal Curse
Artist=Xasthur & Casket of Dreams
Album=The Hallucination Tunnels
Tracknumber=01
Year=2021



Register


Go to the top of the page
  Insert nick Quick quote
+Quote Post
 
Start new topic
Replies (1 - 1)
post Oct 13 2021, 18:16:21
Post #2

Три Литра
***
Group: Завсегдатай
Posts: 212
Releases: 0
On Forums: 4 months 2 days
Thanks: 163 time(s)
Unknown


Американско-канадская коллаборация на ниве заявленного как Данж Синт, получилась максимально провальная и откровенно всратая. Слабенько сыгранный Эмбиент даже без приставки Дарк. Кустарная поделка которая длится ровно 39 минут. Ничего примечательного там нет вообще. За этот год это уже второй провал от Малефика. Былые заслуги будут медленно уходить в лету и забываться, а с таким "творчеством" как сейчас ему должно быть откровенно стыдно (IMG:style_emoticons/default/22.gif) (IMG:style_emoticons/default/22.gif) (IMG:style_emoticons/default/22.gif)
Go to the top of the page
  Insert nick Quick quote
+Quote Post

Reply to this topicStart new topic
4 User(s) are reading this topic (3 Guests and 0 Anonymous Users)
1 Members: Phlegeton

 



- Lo-Fi Version Support form
Copyrights and abuse reports form
Time is now: 15th October 2021 - 20:29:03