Welcome Guest ( Log In | Register )

> Releases Upload / Добавление релизов

Добавить релиз тут / Click here to add release
Рекомендованные обменники / Recommended file shares

> Lamashtus - Insentient - Ascendancy (2021), Avant-Garde Black Metal
post Oct 12 2021, 20:26:02
Post #1

funeral doom fan
Group Icon
Group: S-moderation team
Posts: 5,172
Releases: 2819
From: Ростов-на-Дону
On Forums: 15 years 9 months
Thanks: 53368 time(s)
Russian Federation


(IMG:http://metalarea.org/images/audiocovers/2021_Oct/acov_tid356643_thumb.jpg)

*Artist: Lamashtus
*Album: Insentient - Ascendancy
*Year: 2021
*Genre: Avant-Garde Black Metal
*Country: Spain (IMG:http://metalarea.org/forum/style_images/flags/Spain.png)
*Format: mp3@CBR320kbps
*Size: 104MB

Tracklist:
1. Allegories Of Caacrinolaas Emergence 02:08
2. Multiversal Confluence Of Tenebrous Space 06:40
3. Abstraction Of Perplexing Fiendish Entities 06:03
4. The Intensity Of Immemorial Ordinance 05:53
5. Transcendental Compulsion Of Spectral Flesh 06:02
6. Manifestations Of Phantasmagoria 06:33
7. Profane Embodiment Of Sorcerous Beings 09:33
8. Catástrofe 02:29
******************************
Total playing time: 45:21



Technical info
(IMG:http://metalarea.org/images/spectrogram/2021_Oct/5894909ee6c83d06aa5271d8dadae79c.png)
Input File: 04 - The Intensity Of Immemorial Ordinance.mp3
Channels : 2
Sample Rate : 44100
Precision : 16-bit
Duration : 00:05:53.75 = 15600199 samples = 26531 CDDA sectors
File Size : 14.2M
Bit Rate : 320k
Sample Encoding: MPEG audio (layer I, II or III)
Comments :
Title=The Intensity Of Immemorial Ordinance
Artist=Lamashtus
Album=Insentient - Ascendancy
Tracknumber=04
Year=2021



Register


Go to the top of the page
  Insert nick Quick quote
+Quote Post
 
Start new topic
Replies (1 - 1)
post Oct 13 2021, 09:20:54
Post #2

Четыре Литра
****
Group: Металариец
Posts: 302
Releases: 0
From: минск сити
On Forums: 12 years 3 months
Thanks: 143 time(s)
Belarus


Несерьёзное мучение гитары, под прикрытием диссонансов и авангарда. Страшно подумать, что у этой дамочки в голове творится, если она это творчеством считает.


Thanks:
(1) skidnik,
Go to the top of the page
  Insert nick Quick quote
+Quote Post

Reply to this topicStart new topic
1 User(s) are reading this topic (1 Guests and 0 Anonymous Users)
0 Members:

 



- Lo-Fi Version Support form
Copyrights and abuse reports form
Time is now: 25th October 2021 - 23:25:25