Welcome Guest ( Log In | Register )

> Releases Upload / Добавление релизов

Добавить релиз тут / Click here to add release
Рекомендованные обменники / Recommended file shares

> Sangre Negra - El Vuelo Del Cóndor Negro (2021), Black Metal
post Oct 12 2021, 20:27:09
Post #1

funeral doom fan
Group Icon
Group: S-moderation team
Posts: 5,104
Releases: 2759
From: Ростов-на-Дону
On Forums: 15 years 9 months
Thanks: 52283 time(s)
Russian Federation


(IMG:http://metalarea.org/images/audiocovers/2021_Oct/acov_tid356644_thumb.jpg)

*Artist: Sangre Negra
*Album: El Vuelo Del Cóndor Negro
*Year: 2021
*Genre: Black Metal
*Country: Chile (IMG:http://metalarea.org/forum/style_images/flags/Chile.png)
*Format: mp3@CBR320kbps
*Size: 78MB

Tracklist:
1. Intro 00:35
2. El vuelo del cóndor negro 03:05
3. Oscuras alturas de negra lucha 03:06
4. Cayendo al negro abismo 03:03
5. Conquistador conquistado 03:57
6. La muerte es lo único eterno 06:39
7. Katrala 02:56
8. El manifiesto (VJ cover) 05:00
9. Negra locura (Ritual Oscuro cover) 05:30
******************************
Total playing time: 33:51

(IMG:http://metalarea.org/images/youtube.png)

Technical info
(IMG:http://metalarea.org/images/spectrogram/2021_Oct/689ac2bfa1c661477e250d75cc5ba466.png)
Input File: 04 - Cayendo Al Negro Abismo.mp3
Channels : 2
Sample Rate : 44100
Precision : 16-bit
Duration : 00:03:03.03 = 8071491 samples = 13727 CDDA sectors
File Size : 7.32M
Bit Rate : 320k
Sample Encoding: MPEG audio (layer I, II or III)
Comments :
Title=Cayendo Al Negro Abismo
Artist=Sangre Negra
Album=El Vuelo Del Cóndor Negro
Tracknumber=04
Year=2021



Register


Go to the top of the page
  Insert nick Quick quote
+Quote Post
 
Start new topic
Replies (1 - 1)
post Oct 13 2021, 09:09:27
Post #2

Три Литра
***
Group: Завсегдатай
Posts: 295
Releases: 1
From: минск сити
On Forums: 12 years 3 months
Thanks: 133 time(s)
Belarus


Включил превью на ютубе, запись тихая какая-то, сделал погромче. А тут бац и неожиданно аццке вокал пошёл. Я аж кофе поперхнулся. За злость и ненависть - плюс, но в целом это слушать нельзя.


Thanks:
(1) KKK1488,
Go to the top of the page
  Insert nick Quick quote
+Quote Post

Reply to this topicStart new topic
2 User(s) are reading this topic (2 Guests and 0 Anonymous Users)
0 Members:

 



- Lo-Fi Version Support form
Copyrights and abuse reports form
Time is now: 15th October 2021 - 22:36:28