Welcome Guest ( Log In | Register )

> Releases Upload / Добавление релизов

Добавить релиз тут / Click here to add release
Рекомендованные обменники / Recommended file shares

 
Reply to this topicStart new topic
> Unrelenting Torment - Cursed By The Witch (2021), Black Metal
post Oct 12 2021, 20:30:39
Post #1

funeral doom fan
Group Icon
Group: S-moderation team
Posts: 5,102
Releases: 2759
From: Ростов-на-Дону
On Forums: 15 years 9 months
Thanks: 52281 time(s)
Russian Federation


(IMG:http://metalarea.org/images/audiocovers/2021_Oct/acov_tid356647_thumb.jpg)

*Artist: Unrelenting Torment
*Album: Cursed By The Witch
*Year: 2021
*Genre: Black Metal
*Country: United States (IMG:http://metalarea.org/forum/style_images/flags/United%20States.png)
*Format: mp3@CBR320kbps
*Size: 113MB

Tracklist:
1. Benevolence Turned Malevolent 05:50
2. Enchanted by the Mistress of Spring 05:53
3. Summer of the Witches Curse 07:16
4. Death Ashes in the Winds of Fall 08:17
5. Her Blackened Broken Heart 07:11
6. The Wraith of Winter Night 06:12
7. Cursed by the Witch 08:52
******************************
Total playing time: 49:31



Technical info
(IMG:http://metalarea.org/images/spectrogram/2021_Oct/3db6ec3b656b7c05b2a33c09823d82d1.png)
Input File: 01 - Benevolence Turned Malevolent.mp3
Channels : 2
Sample Rate : 44100
Precision : 16-bit
Duration : 00:05:50.12 = 15440072 samples = 26258.6 CDDA sectors
File Size : 14.0M
Bit Rate : 320k
Sample Encoding: MPEG audio (layer I, II or III)
Comments :
Title=Benevolence Turned Malevolent
Artist=Unrelenting Torment
Album=Cursed by the Witch
Tracknumber=01
Year=2021



Register


Go to the top of the page
  Insert nick Quick quote
+Quote Post

Reply to this topicStart new topic
2 User(s) are reading this topic (2 Guests and 0 Anonymous Users)
0 Members:

 



- Lo-Fi Version Support form
Copyrights and abuse reports form
Time is now: 15th October 2021 - 21:08:33