Welcome Guest ( Log In | Register )

> Releases Upload / Добавление релизов

Добавить релиз тут / Click here to add release
Рекомендованные обменники / Recommended file shares

> Guldan - Überfahrt (2021), Black Metal
post Oct 12 2021, 20:32:35
Post #1

funeral doom fan
Group Icon
Group: S-moderation team
Posts: 5,162
Releases: 2819
From: Ростов-на-Дону
On Forums: 15 years 9 months
Thanks: 53359 time(s)
Russian Federation


(IMG:http://metalarea.org/images/audiocovers/2021_Oct/acov_tid356649_thumb.jpg)

*Artist: Guldan
*Album: Überfahrt
*Year: 2021
*Genre: Black Metal
*Country: Germany (IMG:http://metalarea.org/forum/style_images/flags/Germany.png)
*Format: mp3@CBR320kbps
*Size: 77MB

Tracklist:
1. Intro 01:14
2. Spiegelwelt 05:45
3. Rastlos 05:53
4. Die Ruhe vor dem Sturm 01:10
5. Gefecht 04:10
6. Windstille 06:05
7. Überfahrt 06:32
8. Outro 02:03
******************************
Total playing time: 32:52



Technical info
(IMG:http://metalarea.org/images/spectrogram/2021_Oct/6b7b200830a4c03b077edf2d5842055b.png)
Input File: 05 - Gefecht.mp3
Channels : 2
Sample Rate : 44100
Precision : 16-bit
Duration : 00:04:10.03 = 11026499 samples = 18752.5 CDDA sectors
File Size : 10.2M
Bit Rate : 326k
Sample Encoding: MPEG audio (layer I, II or III)
Comments :
Title=Gefecht
Artist=Guldan
Album=Überfahrt
Tracknumber=05
Year=2021



Register


Go to the top of the page
  Insert nick Quick quote
+Quote Post
 
Start new topic
Replies (1 - 6)
post Oct 13 2021, 10:13:26
Post #2

I hate you all
**************
Group: Металариец
Posts: 2,723
Releases: 82
From: Ukraine
On Forums: 14 years 5 months
Thanks: 6876 time(s)
Ukraine


Go to the top of the page
  Insert nick Quick quote
+Quote Post
post Oct 13 2021, 13:03:22
Post #3

кручу наждак
**************
Group: Металариец
Posts: 5,193
Releases: 104
From: Самара
On Forums: 11 years 5 months
Thanks: 4161 time(s)
Russian Federation


Абсолютная серость.
Go to the top of the page
  Insert nick Quick quote
+Quote Post
post Oct 13 2021, 14:41:44
Post #4

Два Литра
**
Group: Завсегдатай
Posts: 124
Releases: 0
On Forums: 11 years 11 months
Thanks: 57 time(s)
Unknown


неатакующее, незловещее, кароче, кусок гомна с ПООХИМ качеством записе!!!!!!!!!!!!!
Go to the top of the page
  Insert nick Quick quote
+Quote Post
post Oct 13 2021, 14:56:01
Post #5

Два Литра
**
Group: Завсегдатай
Posts: 180
Releases: 5
On Forums: 3 years 7 months
Thanks: 518 time(s)
Unknown


...Damn, who fahrted in here? It smells like FLAC...

Register


Go to the top of the page
  Insert nick Quick quote
+Quote Post
post Oct 13 2021, 17:45:59
Post #6

Три Литра
***
Group: Завсегдатай
Posts: 225
Releases: 0
On Forums: 4 months 1 week
Thanks: 175 time(s)
Unknown


Напомнило десятки и десятки несильно популярных немецких блэк групп, которые были активны в начале нулевых и сейчас даже и не вспомнишь, ни имен, ни названий альбомов. У Guldan все также банально, избито и малоинтересно как и у соотечественников.
Go to the top of the page
  Insert nick Quick quote
+Quote Post
post Oct 13 2021, 20:40:07
Post #7

De Mysteriis Dom Sathanas
**************
Group: Металариец
Posts: 4,302
Releases: 63
From: Doom
On Forums: 13 years 3 months
Thanks: 3673 time(s)
Russian Federation


Такое впечатление, что ударные записали один раз и потом вставили во все песни. Не самый плохой музон, но пока еще совсем сырой
Go to the top of the page
  Insert nick Quick quote
+Quote Post

Reply to this topicStart new topic
1 User(s) are reading this topic (1 Guests and 0 Anonymous Users)
0 Members:

 



- Lo-Fi Version Support form
Copyrights and abuse reports form
Time is now: 25th October 2021 - 20:02:46