Welcome Guest ( Log In | Register )

> Releases Upload / Добавление релизов

Добавить релиз тут / Click here to add release
Рекомендованные обменники / Recommended file shares

> No Sun Rises - Dominium Terrae (2021), Atmospheric/Post-Black Metal
post Oct 12 2021, 20:34:33
Post #1

funeral doom fan
Group Icon
Group: S-moderation team
Posts: 5,365
Releases: 3022
From: Ростов-на-Дону
On Forums: 15 years 11 months
Thanks: 57211 time(s)
Russian Federation


(IMG:http://metalarea.org/images/audiocovers/2021_Oct/acov_tid356650_thumb.jpg)

*Artist: No Sun Rises
*Album: Dominium Terrae
*Year: 2021
*Genre: Atmospheric/Post-Black Metal
*Country: Germany (IMG:http://metalarea.org/forum/style_images/flags/Germany.png)
*Format: mp3@CBR320kbps
*Size: 68MB

Tracklist:
1. Dominium Terrae 18:38
2. Drowning in Silence 11:03
******************************
Total playing time: 29:41



Technical info
(IMG:http://metalarea.org/images/spectrogram/2021_Oct/e1519b685ffd37d0992300a9a19cafae.png)
Input File: 02 - Drowning in Silence.mp3
Channels : 2
Sample Rate : 44100
Precision : 16-bit
Duration : 00:11:03.26 = 29249854 samples = 49744.6 CDDA sectors
File Size : 26.7M
Bit Rate : 322k
Sample Encoding: MPEG audio (layer I, II or III)
Comments :
Title=Drowning in Silence
Artist=No Sun Rises
Album=Dominium Terrae
Tracknumber=2
Year=2021
Genre=Crust



Register


Go to the top of the page
  Insert nick Quick quote
+Quote Post
 
Start new topic
Replies (1 - 1)
post Nov 17 2021, 16:53:29
Post #2

добрый мизантроп
**************
Group: Металариец
Posts: 2,639
Releases: 1
From: Менск
On Forums: 11 years 3 weeks
Thanks: 1149 time(s)
Madagascar


Woman vocals is 9/10, its major gold and beauty of this release. Music under female vocals is mainly gothic-pop wich is also very enjoyable.
Male vocals supported by ABM music is quite bad, reminds worst of one man ABM releases from USA scene.
This conclusion I made before reading the note about NSBM on bandcamp.
Taking the all NSBM branches and blame it with nazi sympathy is about the same logic, that nazis sorted peoples by one accentuated property and limited their right.
Seems this zoomers are extremely stupid which is explains the quality of ABM part :D

Go to the top of the page
  Insert nick Quick quote
+Quote Post

Reply to this topicStart new topic
1 User(s) are reading this topic (1 Guests and 0 Anonymous Users)
0 Members:

 



- Lo-Fi Version Support form
Copyrights and abuse reports form
Time is now: 6th December 2021 - 00:12:50