Welcome Guest ( Log In | Register )

> Releases Upload / Добавление релизов

Добавить релиз тут / Click here to add release
Рекомендованные обменники / Recommended file shares

 
Reply to this topicStart new topic
> No Sun Rises - Dominium Terrae (2021), Atmospheric/Post-Black Metal
post Oct 12 2021, 20:34:33
Post #1

funeral doom fan
Group Icon
Group: S-moderation team
Posts: 5,172
Releases: 2819
From: Ростов-на-Дону
On Forums: 15 years 9 months
Thanks: 53373 time(s)
Russian Federation


(IMG:http://metalarea.org/images/audiocovers/2021_Oct/acov_tid356650_thumb.jpg)

*Artist: No Sun Rises
*Album: Dominium Terrae
*Year: 2021
*Genre: Atmospheric/Post-Black Metal
*Country: Germany (IMG:http://metalarea.org/forum/style_images/flags/Germany.png)
*Format: mp3@CBR320kbps
*Size: 68MB

Tracklist:
1. Dominium Terrae 18:38
2. Drowning in Silence 11:03
******************************
Total playing time: 29:41



Technical info
(IMG:http://metalarea.org/images/spectrogram/2021_Oct/e1519b685ffd37d0992300a9a19cafae.png)
Input File: 02 - Drowning in Silence.mp3
Channels : 2
Sample Rate : 44100
Precision : 16-bit
Duration : 00:11:03.26 = 29249854 samples = 49744.6 CDDA sectors
File Size : 26.7M
Bit Rate : 322k
Sample Encoding: MPEG audio (layer I, II or III)
Comments :
Title=Drowning in Silence
Artist=No Sun Rises
Album=Dominium Terrae
Tracknumber=2
Year=2021
Genre=Crust



Register


Go to the top of the page
  Insert nick Quick quote
+Quote Post

Reply to this topicStart new topic
2 User(s) are reading this topic (2 Guests and 0 Anonymous Users)
0 Members:

 



- Lo-Fi Version Support form
Copyrights and abuse reports form
Time is now: 25th October 2021 - 23:56:23