Welcome Guest ( Log In | Register )

> Alcahest - Alcahest (2021), Black Metal
post Oct 12 2021, 20:35:32
Post #1

funeral doom fan
Group Icon
Group: S-moderation team
Posts: 5,387
Releases: 3043
From: Ростов-на-Дону
On Forums: 16 years 3 weeks
Thanks: 58139 time(s)
Russian Federation


(IMG:http://metalarea.org/images/audiocovers/2021_Oct/acov_tid356651_thumb.jpg)

*Artist: Alcahest
*Album: Alcahest
*Year: 2021
*Genre: Black Metal
*Country: France (IMG:http://metalarea.org/forum/style_images/flags/France.png)
*Format: mp3@CBR320kbps
*Size: 46MB

Tracklist:
1. Délivrance 06:06
2. Charogne 04:12
3. Le vide 04:52
4. Memento Mori 04:38
******************************
Total playing time: 19:48



Technical info
(IMG:http://metalarea.org/images/spectrogram/2021_Oct/50e22262b1a99a71eccd92e59b9d9db2.png)
Input File: 02 - Charogne.mp3
Channels : 2
Sample Rate : 44100
Precision : 16-bit
Duration : 00:04:12.05 = 11115229 samples = 18903.5 CDDA sectors
File Size : 10.2M
Bit Rate : 323k
Sample Encoding: MPEG audio (layer I, II or III)
Comments :
Title=Charogne
Artist=Alcahest
Album=Alcahest
Tracknumber=02
Year=2021



Register


Go to the top of the page
  Insert nick Quick quote
+Quote Post
 
Start new topic
Replies (1 - 5)
post Oct 13 2021, 14:01:41
Post #2

Правь статус, ####!111
**************
Group: Металариец
Posts: 49,761
Releases: 901
On Forums: 12 years 7 months
Thanks: 45968 time(s)
Russian Federation


Алкотест (IMG:style_emoticons/default/true_black.gif)


Thanks:
(1) stub888,
Go to the top of the page
  Insert nick Quick quote
+Quote Post
post Oct 13 2021, 14:15:53
Post #3

Пять Литров
*****
Group: Металариец
Posts: 455
Releases: 0
On Forums: 12 years 7 months
Thanks: 122 time(s)
Russian Federation


ЦИТАТА(vosmidesijatye @ Oct 13 2021, 16:01:41) *


Нет! Товарисч!!! -- АлкоЧесть!!!
офицерская и даже гражданская...
Go to the top of the page
  Insert nick Quick quote
+Quote Post
post Oct 13 2021, 14:47:39
Post #4

Три Литра
***
Group: Завсегдатай
Posts: 231
Releases: 11
On Forums: 3 years 10 months
Thanks: 851 time(s)
Unknown


...Yo yo yo, you best have my money or else Imma bust a cap in your FLAC...

Register


Go to the top of the page
  Insert nick Quick quote
+Quote Post
post Oct 13 2021, 16:47:23
Post #5

Четыре Литра
****
Group: Металариец
Posts: 368
Releases: 29
From: France
On Forums: 12 years 6 months
Thanks: 919 time(s)
France


QUOTE
First Alcahest EP in Digisleeve released by Drakkar Productions
Artwork : Manon-Lou The Witch
Logo : Christophe Szpajdel
Go to the top of the page
  Insert nick Quick quote
+Quote Post
post Nov 17 2021, 17:26:18
Post #6

добрый мизантроп
**************
Group: Металариец
Posts: 2,783
Releases: 1
From: Менск
On Forums: 11 years 2 months
Thanks: 1222 time(s)
Madagascar


True Black (IMG:style_emoticons/default/true_black.gif)
Go to the top of the page
  Insert nick Quick quote
+Quote Post

Reply to this topicStart new topic
2 User(s) are reading this topic (2 Guests and 0 Anonymous Users)
0 Members:

 



- Lo-Fi Version Support form
Copyrights and abuse reports form
Time is now: 24th January 2022 - 13:56:39