Welcome Guest ( Log In | Register )

> Releases Upload / Добавление релизов

Добавить релиз тут / Click here to add release
Рекомендованные обменники / Recommended file shares

> Cosmic Burial - .​.​.​To The Past (2021), Atmospheric Black Metal
post Oct 12 2021, 22:37:24
Post #1

Правь статус, ####!616
**************
Group: Металариец
Posts: 7,217
Releases: 5651
From: 55°35’N 38°08’E
On Forums: 13 years 3 months
Thanks: 103162 time(s)
Unknown


(IMG:https://metalarea.org/images/audiocovers/2021_Oct/acov_tid356653_thumb.jpg)

*Artist: Cosmic Burial
*Album: .​.​.​To The Past
*Year: 2021
*Genre: Atmospheric Black Metal
*Country: Germany (IMG:https://metalarea.org/forum/style_images/flags/Germany.png)
*Format: mp3@CBR320kbps
*Size: 104MB

Tracklist:
1. Alpha Centauri A 09:18
2. Alpha Bootis 10:43
3. Alpha Carinae 12:27
4. Alpha Canis Majoris 13:01
******************************
Total playing time: 45:29



(IMG:https://metalarea.org/images/youtube.png)

Extended info
Instrumental
CD, Purity Through Fire (PTF192)
FLAC-Rip


Technical info
(IMG:https://metalarea.org/images/spectrogram/2021_Oct/de9ea92e43c89e152970d7fdc339aef6.png)
Input File: 01 Alpha Centauri A.mp3
Channels : 2
Sample Rate : 44100
Precision : 16-bit
Duration : 00:09:20.44 = 24715360 samples = 42032.9 CDDA sectors
File Size : 22.6M
Bit Rate : 322k
Sample Encoding: MPEG audio (layer I, II or III)
Comments :
Title=Alpha Centauri A
Artist=Cosmic Burial
Album=...To The Past
Tracknumber=01/4
Year=2021
Genre=Black Metal
Discnumber=1/1



Register


Go to the top of the page
  Insert nick Quick quote
+Quote Post
 
Start new topic
Replies (1 - 1)
post Oct 13 2021, 11:17:54
Post #2

Правь статус, ####!616
**************
Group: Металариец
Posts: 7,217
Releases: 5651
From: 55°35’N 38°08’E
On Forums: 13 years 3 months
Thanks: 103162 time(s)
Unknown


FLAC

Register


Thanks:
Go to the top of the page
  Insert nick Quick quote
+Quote Post

Reply to this topicStart new topic
1 User(s) are reading this topic (1 Guests and 0 Anonymous Users)
0 Members:

 



- Lo-Fi Version Support form
Copyrights and abuse reports form
Time is now: 26th October 2021 - 00:36:41