Welcome Guest ( Log In | Register )

> Releases Upload / Добавление релизов

Добавить релиз тут / Click here to add release
Рекомендованные обменники / Recommended file shares

> Cosmic Burial - Galaxy [demo] (2019), Atmospheric Black Metal
post Oct 12 2021, 23:21:56
Post #1

Правь статус, ####!616
**************
Group: Металариец
Posts: 7,217
Releases: 5651
From: 55°35’N 38°08’E
On Forums: 13 years 3 months
Thanks: 103162 time(s)
Unknown


(IMG:https://metalarea.org/images/audiocovers/2021_Oct/acov_tid356654_thumb.jpg)

*Artist: Cosmic Burial
*Album: Galaxy [demo]
*Year: 2019
*Genre: Atmospheric Black Metal
*Country: Germany (IMG:https://metalarea.org/forum/style_images/flags/Germany.png)
*Format: mp3@CBR320kbps
*Size: 162MB

Tracklist:
1. The Milky Way (Galaxy) 18:05
2. NGC 224 (Andromeda Galaxy) 17:13
3. The Approach (The Beginning) 15:25
4. Collision (The End) 20:04
******************************
Total playing time: 1:10:47



Extended info
Instrumental
CD, Purity Through Fire (PTF265)(2021)
FLAC-Rip


Technical info
(IMG:https://metalarea.org/images/spectrogram/2021_Oct/ec9f3855f6a107c3af8231eb86086c94.png)
Input File: 01 The Milky Way (Galaxy).mp3
Channels : 2
Sample Rate : 44100
Precision : 16-bit
Duration : 00:18:05.69 = 47878753 samples = 81426.5 CDDA sectors
File Size : 43.6M
Bit Rate : 321k
Sample Encoding: MPEG audio (layer I, II or III)
Comments :
Title=The Milky Way (Galaxy)
Artist=Cosmic Burial
Album=Galaxy
Tracknumber=01/4
Year=2021
Genre=Black Metal
Discnumber=1/1



Register


Go to the top of the page
  Insert nick Quick quote
+Quote Post
 
Start new topic
Replies (1 - 1)
post Oct 13 2021, 11:15:50
Post #2

Правь статус, ####!616
**************
Group: Металариец
Posts: 7,217
Releases: 5651
From: 55°35’N 38°08’E
On Forums: 13 years 3 months
Thanks: 103162 time(s)
Unknown


FLAC


Register



Thanks:
Go to the top of the page
  Insert nick Quick quote
+Quote Post

Reply to this topicStart new topic
1 User(s) are reading this topic (1 Guests and 0 Anonymous Users)
0 Members:

 



- Lo-Fi Version Support form
Copyrights and abuse reports form
Time is now: 26th October 2021 - 00:49:29