Welcome Guest ( Log In | Register )

> Releases Upload / Добавление релизов

Добавить релиз тут / Click here to add release
Рекомендованные обменники / Recommended file shares

> Goreatorium - Murderous Ritual Frenzy [ep] (2021), Death Metal/Grindcore
post Oct 13 2021, 02:29:56
Post #1

Правь статус, ####!111
**************
Group: Металариец
Posts: 27,739
Releases: 20173
From: Г.Харьков
On Forums: 9 years 5 months
Thanks: 408647 time(s)
Unknown


(IMG:https://metalarea.org/images/audiocovers/2021_Oct/acov_tid356658_thumb.jpg)

*Artist: Goreatorium
*Album: Murderous Ritual Frenzy [ep]
*Year: 2021
*Genre: Death Metal/Grindcore
*Country: United States (IMG:https://metalarea.org/forum/style_images/flags/United%20States.png)
*Format: mp3@CBR320kbps
*Size: 48MB

Tracklist:
1. Severed Head Perversion
2. Deranged Violence
3. Necrocephalic Symbiosis
4. 4N6 (Forensics)
5. I Follow
6. Crossed
******************************
Total playing time: 19:02




Extended info
Zombi Holocaust Drums (2014-present)
Dr. Death Vocals (2014-present)
See also: ex-Terrorism
El Maniaco Bass (2015-present)
Audy Blanco Guitars (2019-present)
See also: Gangrenous Consumption


Technical info
(IMG:https://metalarea.org/images/spectrogram/2021_Oct/d844112d8886afe5aee6a481fb68631b.png)
Input File: 03. Necrocephalic Symbiosis.mp3
Channels : 2
Sample Rate : 44100
Precision : 16-bit
Duration : 00:03:40.64 = 9730092 samples = 16547.8 CDDA sectors
File Size : 9.54M
Bit Rate : 346k
Sample Encoding: MPEG audio (layer I, II or III)
Comments :
Title=Necrocephalic Symbiosis
Artist=Goreatorium
Album=Murderous Ritual Frenzy
Tracknumber=03
Year=2021
Genre=Metal



Register


Go to the top of the page
  Insert nick Quick quote
+Quote Post
 
Start new topic
Replies (1 - 1)
post Oct 13 2021, 07:51:07
Post #2

Маньяк
**********
Group: Металариец
Posts: 1,202
Releases: 1
From: APATIN, SERBIA, АПАТИН, СЕРБИЯ
On Forums: 14 years 2 days
Thanks: 2909 time(s)



Flac

Register


Thanks:
(1) Olethros,
Go to the top of the page
  Insert nick Quick quote
+Quote Post

Reply to this topicStart new topic
1 User(s) are reading this topic (1 Guests and 0 Anonymous Users)
0 Members:

 



- Lo-Fi Version Support form
Copyrights and abuse reports form
Time is now: 25th October 2021 - 23:36:53