Welcome Guest ( Log In | Register )

> Releases Upload / Добавление релизов

Добавить релиз тут / Click here to add release
Рекомендованные обменники / Recommended file shares

 
Reply to this topicStart new topic
> Venus Torment - Perversion Of Nature (2021), Death/Black/Thrash Metal
post Oct 13 2021, 04:35:03
Post #1

Правь статус, ####!111
**************
Group: Металариец
Posts: 27,653
Releases: 20089
From: Г.Харьков
On Forums: 9 years 5 months
Thanks: 406455 time(s)
Unknown


(IMG:https://metalarea.org/images/audiocovers/2021_Oct/acov_tid356660_thumb.jpg)

*Artist: Venus Torment
*Album: Perversion Of Nature
*Year: 2021
*Genre: Death/Black/Thrash Metal
*Country: Chile (IMG:https://metalarea.org/forum/style_images/flags/Chile.png)
*Format: mp3@CBR320kbps
*Size: 80MB

Tracklist:
01. Infinite Spiral
02. Perversion of Nature
03. Astrophysical Desire
04. In Despair
05. Sleep Deprivation
06. Regressive Life
07. The Spirit Molecule
08. Ultraviolent Fragments of Self
09. Endorphin Unfolds
10. The Permanent Ousia
******************************
Total playing time: 34:28




Extended info
Venus Torment Everything
See also: Ripper, Subliminal Noise, The Missings, Insanity (live), ex-Hellbutcher (live)
Marcelo Lara - Drums


Technical info
(IMG:https://metalarea.org/images/spectrogram/2021_Oct/71f2b9e23da0b3b96adc1e98f038a92d.png)
Input File: 09. Endorphin Unfolds.mp3
Channels : 2
Sample Rate : 44100
Precision : 16-bit
Duration : 00:04:06.59 = 10874443 samples = 18494 CDDA sectors
File Size : 9.99M
Bit Rate : 324k
Sample Encoding: MPEG audio (layer I, II or III)
Comments :
Title=Endorphin Unfolds
Artist=Venus Torment
Album=Perversion of Nature
Tracknumber=9
Year=2021



Register


Go to the top of the page
  Insert nick Quick quote
+Quote Post

Reply to this topicStart new topic
1 User(s) are reading this topic (1 Guests and 0 Anonymous Users)
0 Members:

 



- Lo-Fi Version Support form
Copyrights and abuse reports form
Time is now: 15th October 2021 - 22:30:41