Welcome Guest ( Log In | Register )

> Releases Upload / Добавление релизов

Добавить релиз тут / Click here to add release
Рекомендованные обменники / Recommended file shares

> Deathcvlt - Deathcvlt (2021), Melodic Black/Death Metal
post Oct 13 2021, 04:52:11
Post #1

Правь статус, ####!111
**************
Group: Металариец
Posts: 27,653
Releases: 20089
From: Г.Харьков
On Forums: 9 years 5 months
Thanks: 406452 time(s)
Unknown


(IMG:https://metalarea.org/images/audiocovers/2021_Oct/acov_tid356661_thumb.jpg)

*Artist: Deathcvlt
*Album: Deathcvlt
*Year: 2021
*Genre: Melodic Black/Death Metal
*Country: Italy (IMG:https://metalarea.org/forum/style_images/flags/Italy.png)
*Format: mp3@CBR320kbps
*Size: 98MB

Tracklist:
01. Deathcvlt
02. Santa Muerte
03. Eternal Darkness
04. Inanis
05. Dust of Sacral Soul (Dark Mother Kali-Ma)
06. The Sign of Death (Malak Al-Mawlt)
07. Damnation and Suffering
08. Blackned Kiss
******************************
Total playing time: 42:19




Extended info
Ulag: guitars / bass
Bestia: drums
XeS: voice


Technical info
(IMG:https://metalarea.org/images/spectrogram/2021_Oct/10f3255173ed9c340d4b6148050668e3.png)
Input File: 08 - Blackned Kiss.mp3
Channels : 2
Sample Rate : 44100
Precision : 16-bit
Duration : 00:05:36.00 = 14817600 samples = 25200 CDDA sectors
File Size : 13.7M
Bit Rate : 326k
Sample Encoding: MPEG audio (layer I, II or III)
Comments :
Title=Blackned Kiss
Artist=Deathcvlt
Album=Deathcvlt
Tracknumber=8
Year=2021-07-16
Genre=Metal
Discnumber=1



Register


Go to the top of the page
  Insert nick Quick quote
+Quote Post
 
Start new topic
Replies (1 - 4)
post Yesterday, 17:02:20
Post #2

Четыре Литра
****
Group: Металариец
Posts: 371
Releases: 5
On Forums: 14 years 6 months
Thanks: 305 time(s)
Russian Federation


Страна: Romania
Go to the top of the page
  Insert nick Quick quote
+Quote Post
post Yesterday, 17:13:10
Post #3

Правь статус, ####!111
**************
Group: Металариец
Posts: 27,653
Releases: 20089
From: Г.Харьков
On Forums: 9 years 5 months
Thanks: 406452 time(s)
Unknown


ЦИТАТА(goxther @ Oct 14 2021, 17:02:20) *
Страна: Romania

Это лейбл Румынский,а группа из Италии.
Go to the top of the page
  Insert nick Quick quote
+Quote Post
post Yesterday, 17:37:09
Post #4

Group: Подсевший
Posts: 49
Releases: 0
On Forums: 1 year 9 months
Thanks: 16 time(s)
Russian Federation


Go to the top of the page
  Insert nick Quick quote
+Quote Post
post Today, 16:44:04
Post #5

Восемь Литров
********
Group: Металариец
Posts: 882
Releases: 0
From: South Of Heaven
On Forums: 14 years 2 months
Thanks: 423 time(s)
Ukraine


Отличный альбомчик в своём жанре !
Go to the top of the page
  Insert nick Quick quote
+Quote Post

Reply to this topicStart new topic
2 User(s) are reading this topic (2 Guests and 0 Anonymous Users)
0 Members:

 



- Lo-Fi Version Support form
Copyrights and abuse reports form
Time is now: 15th October 2021 - 22:12:18