Welcome Guest ( Log In | Register )

> Releases Upload / Добавление релизов

Добавить релиз тут / Click here to add release
Рекомендованные обменники / Recommended file shares

> Noltem - Illusions In The Wake (2021), Atmospheric Black Metal
post Oct 13 2021, 11:50:03
Post #1

Правь статус, 616
**************
Group: Металариец
Posts: 7,222
Releases: 5651
From: 55°35’N 38°08’E
On Forums: 13 years 4 months
Thanks: 104126 time(s)
Unknown


(IMG:https://metalarea.org/images/audiocovers/2021_Oct/acov_tid356662_thumb.jpg)

*Artist: Noltem
*Album: Illusions In The Wake
*Year: 2021
*Genre: Atmospheric Black Metal
*Country: United States (IMG:https://metalarea.org/forum/style_images/flags/United%20States.png)
*Format: mp3@CBR320kbps
*Size: 95MB

Tracklist:
1.Figment 08:32
2.Illusions in the Wake 06:47
3.Beneath the Dreaming Blue 07:49
4.Submerged 01:55
5.Ruse 08:47
6.On Shores of Glass 06:59
******************************
Total playing time: 40:49



(IMG:https://metalarea.org/images/youtube.png)

Technical info
(IMG:https://metalarea.org/images/spectrogram/2021_Oct/06e8050604c8ccff5290dd24fbf45a7b.png)
Input File: 01 Figment.mp3
Channels : 2
Sample Rate : 44100
Precision : 16-bit
Duration : 00:08:32.35 = 22594415 samples = 38425.9 CDDA sectors
File Size : 20.7M
Bit Rate : 323k
Sample Encoding: MPEG audio (layer I, II or III)
Comments :
Title=Figment
Artist=NOLTEM
Album=Illusions In The Wake
Tracknumber=1
Year=2021
Genre=Black Metal



Register


Go to the top of the page
  Insert nick Quick quote
+Quote Post
 
Start new topic
Replies (1 - 3)
post Oct 14 2021, 08:09:42
Post #2

Туфлєблек то є файно
**************
Group: Металариец
Posts: 2,523
Releases: 0
From: Україна
On Forums: 12 years 10 months
Thanks: 2144 time(s)
Ukraine


Отлично, ждал альбом полностью, теперь послушаю.

Только что заслушался этой штукой.
Вкуснейшая инструменталка, очень красиво.
(IMG:style_emoticons/default/pray.gif) (IMG:style_emoticons/default/pray.gif) (IMG:style_emoticons/default/pray.gif)


Thanks:
Go to the top of the page
  Insert nick Quick quote
+Quote Post
post Oct 14 2021, 18:16:44
Post #3

Group: Подсевший
Posts: 28
Releases: 0
From: Ottawa
On Forums: 11 months 1 week
Thanks: 0 time(s)
Brazil


Executed to perfection.
Go to the top of the page
  Insert nick Quick quote
+Quote Post
post Oct 17 2021, 11:51:23
Post #4

Common dweller of hell
**************
Group: Металариец
Posts: 4,124
Releases: 12
From: Dnipro
On Forums: 13 years 4 months
Thanks: 1612 time(s)
Ukraine


Тут имеем не тривиальный блэк метал, не ломовой и не злобный,
альбом хорошо именно просто как музыка, хотя они и позиционируют себя как Atmospheric Black Metal,
но как по мне, то такового в классическом варианте понимания Atmospheric Black Metal тут я не нашел,
а есть приятная смесь блюза, чуть-чуть фанка и среднетемпового Black Metal.
Go to the top of the page
  Insert nick Quick quote
+Quote Post

Reply to this topicStart new topic
1 User(s) are reading this topic (1 Guests and 0 Anonymous Users)
0 Members:

 



- Lo-Fi Version Support form
Copyrights and abuse reports form
Time is now: 5th December 2021 - 04:02:18