Welcome Guest ( Log In | Register )

> Releases Upload / Добавление релизов

Добавить релиз тут / Click here to add release
Рекомендованные обменники / Recommended file shares

 
Reply to this topicStart new topic
> Arazubak - The Haunted Spawn Of Torment (2021), Raw Black Metal
post Oct 13 2021, 12:01:59
Post #1

Правь статус, ####!616
**************
Group: Металариец
Posts: 7,184
Releases: 5615
From: 55°35’N 38°08’E
On Forums: 13 years 3 months
Thanks: 102346 time(s)
Unknown


(IMG:https://metalarea.org/images/audiocovers/2021_Oct/acov_tid356663_thumb.jpg)

*Artist: Arazubak
*Album: The Haunted Spawn Of Torment
*Year: 2021
*Genre: Raw Black Metal
*Country: United States (IMG:https://metalarea.org/forum/style_images/flags/United%20States.png)
*Format: mp3@CBR320kbps
*Size: 91MB

Tracklist:
1.I 01:38
2.Herald of Demise 04:50
3.Bewildered by the Allure of Death 05:27
4.Full Moon Apparitions 05:00
5.II 01:39
6.Misery and Twisted Woes 04:31
7.Above Everlasting Turmoil 04:51
8.In Solitude, My Soul Gives Way 07:30
9.III 01:53
******************************
Total playing time: 37:19



Technical info
(IMG:https://metalarea.org/images/spectrogram/2021_Oct/19c9b2cad13abba2aeb300bb10e37a03.png)
Input File: 01 I.mp3
Channels : 2
Sample Rate : 44100
Precision : 16-bit
Duration : 00:01:38.46 = 4342262 samples = 7384.8 CDDA sectors
File Size : 4.14M
Bit Rate : 336k
Sample Encoding: MPEG audio (layer I, II or III)
Comments :
Title=I
Artist=Arazubak
Album=The Haunted Spawn of Torment
Tracknumber=1
Year=2021
Genre=Black Metal



Register


Go to the top of the page
  Insert nick Quick quote
+Quote Post

Reply to this topicStart new topic
2 User(s) are reading this topic (2 Guests and 0 Anonymous Users)
0 Members:

 



- Lo-Fi Version Support form
Copyrights and abuse reports form
Time is now: 15th October 2021 - 22:36:59