Welcome Guest ( Log In | Register )

> Releases Upload / Добавление релизов

Добавить релиз тут / Click here to add release
Рекомендованные обменники / Recommended file shares

 
Reply to this topicStart new topic
> Pile Of Priests - Redemptionem Per Cruciatu [single] (2017), Death/Thrash Metal (D4)
post Oct 13 2021, 13:20:00
Post #1

Правь статус, ####!111
**************
Group: Металариец
Posts: 5,115
Releases: 468
From: MoscoW
On Forums: 14 years 10 months
Thanks: 7542 time(s)
Russian Federation


(IMG:https://metalarea.org/images/audiocovers/2021_Oct/acov_tid356664_thumb.jpg)

*Artist: Pile Of Priests
*Album: Redemptionem Per Cruciatu [single]
*Year: 2017
*Genre: Death/Thrash Metal
*Country: United States (IMG:https://metalarea.org/forum/style_images/flags/United%20States.png)
*Format: mp3@CBR320kbps
*Size: 12MB

Tracklist:
01. Redemptionem Per Cruciatu 04:51
******************************
Total playing time: 4:51

Extended info




Technical info
(IMG:https://metalarea.org/images/spectrogram/2021_Oct/b1007ec87f72cf74765968132a49ee25.png)
Input File: 01. Redemptionem Per Cruciatu.mp3
Channels : 2
Sample Rate : 44100
Precision : 16-bit
Duration : 00:04:51.39 = 12850255 samples = 21854.2 CDDA sectors
File Size : 11.8M
Bit Rate : 324k
Sample Encoding: MPEG audio (layer I, II or III)
Comments :
Title=Redemptionem Per Cruciatu
Artist=Pile of Priests
Year=2017



Register


Thanks:
(2) boby9052, caro,
Go to the top of the page
  Insert nick Quick quote
+Quote Post

Reply to this topicStart new topic
3 User(s) are reading this topic (2 Guests and 0 Anonymous Users)
1 Members: coolchinese

 



- Lo-Fi Version Support form
Copyrights and abuse reports form
Time is now: 15th October 2021 - 20:39:34