Welcome Guest ( Log In | Register )

> Releases Upload / Добавление релизов

Добавить релиз тут / Click here to add release
Рекомендованные обменники / Recommended file shares

> Perennial Return - Cosmic Purgatory [ep] (2021), Melodic Black/Death Metal
post Oct 13 2021, 13:39:04
Post #1

Правь статус, ####!616
**************
Group: Металариец
Posts: 7,182
Releases: 5615
From: 55°35’N 38°08’E
On Forums: 13 years 3 months
Thanks: 102340 time(s)
Unknown


(IMG:https://metalarea.org/images/audiocovers/2021_Oct/acov_tid356665_thumb.jpg)

*Artist: Perennial Return
*Album: Cosmic Purgatory [ep]
*Year: 2021
*Genre: Melodic Black/Death Metal
*Country: Finland (IMG:https://metalarea.org/forum/style_images/flags/Finland.png)
*Format: mp3@CBR320kbps
*Size: 58MB

Tracklist:
1. Void I 01:42
2. Void II 06:20
3. Void III 04:41
4. Void IV 05:23
5. Void V 07:04
******************************
Total playing time: 25:10


(IMG:https://metalarea.org/images/youtube.png)
(IMG:https://metalarea.org/images/youtube.png)
Spotify

Extended info
Pessi Haltsonen - Vocals (Blood Chalice, Retaliatory Measures, Torture Killer, Chainsaw Dismemberment, Garm)
Kalle Aaltonen - Guitars, Vocals, Bass, Programming (Retaliatory Measures, Synestesia, Mors Principium Est)


Technical info
(IMG:https://metalarea.org/images/spectrogram/2021_Oct/de4af1bc353384e9d6073908180cd4e5.png)
Input File: 02. Void II.mp3
Channels : 2
Sample Rate : 44100
Precision : 16-bit
Duration : 00:06:20.89 = 16797205 samples = 28566.7 CDDA sectors
File Size : 15.3M
Bit Rate : 321k
Sample Encoding: MPEG audio (layer I, II or III)
Comments :
Title=Void II
Artist=Perennial Return
Album=Cosmic Purgatory
Tracknumber=02
Year=2021
Genre=Death Metal
Discnumber=1



Register


Go to the top of the page
  Insert nick Quick quote
+Quote Post
 
Start new topic
Replies (1 - 1)
post Yesterday, 11:03:13
Post #2

Маньяк
**********
Group: Металариец
Posts: 1,207
Releases: 0
From: Днепр
On Forums: 7 years 2 months
Thanks: 664 time(s)
Unknown


Такое ощущение , что все сошли .
Go to the top of the page
  Insert nick Quick quote
+Quote Post

Reply to this topicStart new topic
1 User(s) are reading this topic (1 Guests and 0 Anonymous Users)
0 Members:

 



- Lo-Fi Version Support form
Copyrights and abuse reports form
Time is now: 15th October 2021 - 21:32:40