Welcome Guest ( Log In | Register )

> Releases Upload / Добавление релизов

Добавить релиз тут / Click here to add release
Рекомендованные обменники / Recommended file shares

> Dead End Thoughts - Demon Form (2021), Stoner/Doom Metal
post Oct 13 2021, 14:11:04
Post #1

Serial Uploader
Group Icon
Group: V.I.P
Posts: 37,642
Releases: 35808
From: Lithuania
On Forums: 13 years 4 months
Thanks: 434131 time(s)
Lithuania


(IMG:https://metalarea.org/images/audiocovers/2021_Oct/acov_tid356666_thumb.jpg)

*Artist: Dead End Thoughts
*Album: Demon Form
*Year: 2021
*Genre: Stoner/Doom Metal
*Country: Australia (IMG:https://metalarea.org/forum/style_images/flags/Australia.png)
*Format: mp3@CBR320kbps
*Size: 148MB

Tracklist:
01. The Warrior 08:39
02. The Witness 12:47
03. Form & Formless 13:34
04. Inner Civil War 11:17
05. Demon Form 11:02
******************************
Total playing time: 57:19



Technical info
(IMG:https://metalarea.org/images/spectrogram/2021_Oct/e0424ddcec014e91a0875184a9a64f9b.png)
Input File: 02. The Witness.mp3
Channels : 2
Sample Rate : 44100
Precision : 16-bit
Duration : 00:12:47.73 = 33856849 samples = 57579.7 CDDA sectors
File Size : 30.9M
Bit Rate : 322k
Sample Encoding: MPEG audio (layer I, II or III)
Comments :
Title=The Witness
Artist=Dead End Thoughts
Album=Demon Form
Tracknumber=2
Year=2021



Register


Go to the top of the page
  Insert nick Quick quote
+Quote Post
 
Start new topic
Replies (1 - 1)
post Yesterday, 11:21:15
Post #2

Правь статус, ####!111
**************
Group: Металариец
Posts: 49,245
Releases: 874
On Forums: 12 years 4 months
Thanks: 44814 time(s)
Russian Federation


Неторопливо-размеренный материал с гипнотическими риффами и приятным вокалом. Круто! (IMG:style_emoticons/default/25.gif)
Go to the top of the page
  Insert nick Quick quote
+Quote Post

Reply to this topicStart new topic
2 User(s) are reading this topic (2 Guests and 0 Anonymous Users)
0 Members:

 



- Lo-Fi Version Support form
Copyrights and abuse reports form
Time is now: 15th October 2021 - 21:10:04