Welcome Guest ( Log In | Register )

> Releases Upload / Добавление релизов

Добавить релиз тут / Click here to add release
Рекомендованные обменники / Recommended file shares

> Entrails Massacre & Sanctioned - Entrails Massacre/Sanctioned [split] (2021), Grindcore | Grindcore (D)
post Oct 13 2021, 15:33:20
Post #1

Мегаманьяк
***********
Group: Металариец
Posts: 1,765
Releases: 576
On Forums: 11 years 2 weeks
Thanks: 12321 time(s)
Italy


(IMG:http://metalarea.org/images/audiocovers/2021_Oct/acov_tid356667_thumb.jpg)

*Artist: Entrails Massacre & Sanctioned
*Album: Entrails Massacre/Sanctioned [split]
*Year: 2021
*Genre: Grindcore | Grindcore
*Country: Germany (IMG:http://metalarea.org/forum/style_images/flags/Germany.png) | Australia (IMG:http://metalarea.org/forum/style_images/flags/Australia.png)
*Format: mp3@CBR320kbps
*Size: 19MB

Tracklist:
Entrails Massacre:
1.2 Do List 00:58
2.The Dead Walk Among Us 01:04
3.Stick Your Tasteless Gossip Up Your Ass 01:08
4.Age Smells 00:46
Sanctioned:
5.Dysfunction 01:14
6.Injustice 01:22
7.Retaliate 00:57
******************************
Total playing time: 7:29



Technical info
(IMG:http://metalarea.org/images/spectrogram/2021_Oct/d285a6f213411cd8a9b1892641c5d744.png)
Input File: 02 Entrails Massacre - The Dead Walk Among Us.mp3
Channels : 2
Sample Rate : 44100
Precision : 16-bit
Duration : 00:01:04.79 = 2857239 samples = 4859.25 CDDA sectors
File Size : 2.86M
Bit Rate : 353k
Sample Encoding: MPEG audio (layer I, II or III)
Comments :
Title=Entrails Massacre - The Dead Walk Among Us
Artist=Entrails Massacre
Album=Split
Tracknumber=02
Year=2021
Genre=Grindcore



Register


Go to the top of the page
  Insert nick Quick quote
+Quote Post
 
Start new topic
Replies (1 - 1)
post Oct 14 2021, 07:48:23
Post #2

Мегаманьяк
***********
Group: Металариец
Posts: 1,765
Releases: 576
On Forums: 11 years 2 weeks
Thanks: 12321 time(s)
Italy


FLAC-100MB
Register


Thanks:
(1) wreak,
Go to the top of the page
  Insert nick Quick quote
+Quote Post

Reply to this topicStart new topic
1 User(s) are reading this topic (1 Guests and 0 Anonymous Users)
0 Members:

 



- Lo-Fi Version Support form
Copyrights and abuse reports form
Time is now: 9th December 2021 - 04:38:59