Welcome Guest ( Log In | Register )

> Releases Upload / Добавление релизов

Добавить релиз тут / Click here to add release
Рекомендованные обменники / Recommended file shares

 
Reply to this topicStart new topic
> Infuzoria Tufelka - Tasty Food (Ep Album) [ep] (2013), Goregrind/Brutal Death Metal
post Oct 13 2021, 15:46:42
Post #1

Правь статус, ####!111
**************
Group: Металариец
Posts: 5,169
Releases: 481
From: MoscoW
On Forums: 15 years 3 days
Thanks: 7796 time(s)
Russian Federation


(IMG:https://metalarea.org/images/audiocovers/2021_Oct/acov_tid356669_thumb.jpg)

*Artist: Infuzoria Tufelka
*Album: Tasty Food (Ep Album) [ep]
*Year: 2013
*Genre: Goregrind/Brutal Death Metal
*Country: Russian Federation (IMG:https://metalarea.org/forum/style_images/flags/Russian%20Federation.png)
*Format: mp3@CBR320kbps
*Size: 14MB

Tracklist:
01. Intestinal Nodules 01:59
02. Gangrene Semifinished 00:58
03. Salt For Baths 00:24
04. Double Genitals 01:16
05. Ants Masochists 01:19
******************************
Total playing time: 5:56



Technical info
(IMG:https://metalarea.org/images/spectrogram/2021_Oct/719e1d4bf0c5460db8fa37ef1fe7c1ab.png)
Input File: 01. Intestinal Nodules.mp3
Channels : 2
Sample Rate : 44100
Precision : 16-bit
Duration : 00:01:59.70 = 5278770 samples = 8977.5 CDDA sectors
File Size : 4.79M
Bit Rate : 320k
Sample Encoding: MPEG audio (layer I, II or III)



Register


Go to the top of the page
  Insert nick Quick quote
+Quote Post

Reply to this topicStart new topic
1 User(s) are reading this topic (1 Guests and 0 Anonymous Users)
0 Members:

 



- Lo-Fi Version Support form
Copyrights and abuse reports form
Time is now: 4th December 2021 - 23:27:11