Welcome Guest ( Log In | Register )

> Releases Upload / Добавление релизов

Добавить релиз тут / Click here to add release
Рекомендованные обменники / Recommended file shares

 
Reply to this topicStart new topic
> Weathered Crest - Blossoming Of The Paths (2021), Black Metal
post Oct 13 2021, 16:30:43
Post #1

Правь статус, ####!111
**************
Group: Металариец
Posts: 2,385
Releases: 1929
From: Praha
On Forums: 7 years 7 months
Thanks: 51477 time(s)
Czech Republic


(IMG:http://metalarea.org/images/audiocovers/2021_Oct/acov_tid356670_thumb.jpg)

*Artist: Weathered Crest
*Album: Blossoming Of The Paths
*Year: 2021
*Genre: Black Metal
*Country: Austria (IMG:http://metalarea.org/forum/style_images/flags/Austria.png)
*Format: mp3@CBR320kbps
*Size: 81MB

Tracklist:
1. Intro (Burning Gates) 01:37
2. Insects For The Eyes Of Icons 02:59
3. Solitary Bliss 03:50
4. Armor Of Ash And Dust 03:10
5. Reverie In Lushest Fields 03:56
6. Interlude 02:37
7. Punishment & Songs Of Praise 03:55
8. Eternal Shine In Golden Halls 03:49
9. Cloaking The Monuments 03:02
10. Outro (The Conclusion) 04:13
******************************
Total playing time: 33:08



Technical info
(IMG:http://metalarea.org/images/spectrogram/2021_Oct/e860ccd205775e792495b4153495804e.png)
Input File: 02. Insects For the Eyes of Icons.mp3
Channels : 2
Sample Rate : 44100
Precision : 16-bit
Duration : 00:02:57.90 = 7845478 samples = 13342.6 CDDA sectors
File Size : 7.34M
Bit Rate : 330k
Sample Encoding: MPEG audio (layer I, II or III)
Comments :
Title=Insects For the Eyes of Icons
Artist=Weathered Crest
Album=Blossoming Of The Paths
Tracknumber=02/10
Year=2021
Genre=Black Metal



Register


Go to the top of the page
  Insert nick Quick quote
+Quote Post

Reply to this topicStart new topic
1 User(s) are reading this topic (1 Guests and 0 Anonymous Users)
0 Members:

 



- Lo-Fi Version Support form
Copyrights and abuse reports form
Time is now: 5th December 2021 - 00:41:22