Welcome Guest ( Log In | Register )

> Releases Upload / Добавление релизов

Добавить релиз тут / Click here to add release
Рекомендованные обменники / Recommended file shares

> Leif - Gate [ep] (2019), Melodic Black Metal
post Oct 13 2021, 18:26:58
Post #1

Мегаманьяк
***********
Group: Металариец
Posts: 1,770
Releases: 294
On Forums: 12 years 11 months
Thanks: 6762 time(s)
Russian Federation


(IMG:http://metalarea.org/images/audiocovers/2021_Oct/acov_tid356672_thumb.jpg)

*Artist: Leif
*Album: Gate [ep]
*Year: 2019
*Genre: Melodic Black Metal
*Country: Germany (IMG:http://metalarea.org/forum/style_images/flags/Germany.png)
*Format: mp3@CBR320kbps
*Size: 34MB

Tracklist:
01. The Gate 05:19
02. Into the Storm 04:36
03. Ruine 04:48
******************************
Total playing time: 14:43


(IMG:http://metalarea.org/images/youtube.png)


Extended info


Released July 5, 2019

***FLAC-Rip*


Technical info
(IMG:http://metalarea.org/images/spectrogram/2021_Oct/35a387bf81d45091a497164f4b6cd770.png)
Input File: 01-the Gate.mp3
Channels : 2
Sample Rate : 44100
Precision : 16-bit
Duration : 00:05:19.97 = 14110589 samples = 23997.6 CDDA sectors
File Size : 12.8M
Bit Rate : 320k
Sample Encoding: MPEG audio (layer I, II or III)
Comments :
Title=the Gate
Artist=Leif
Album=Gate
Tracknumber=1
Year=2019
Genre=Melodic Black Metal



Register


Go to the top of the page
  Insert nick Quick quote
+Quote Post
 
Start new topic
Replies (1 - 1)
post Yesterday, 17:16:03
Post #2

Мегаманьяк
***********
Group: Металариец
Posts: 1,770
Releases: 294
On Forums: 12 years 11 months
Thanks: 6762 time(s)
Russian Federation


FLAC tracks
Register


Thanks:
(1) Marek,
Go to the top of the page
  Insert nick Quick quote
+Quote Post

Reply to this topicStart new topic
2 User(s) are reading this topic (2 Guests and 0 Anonymous Users)
0 Members:

 



- Lo-Fi Version Support form
Copyrights and abuse reports form
Time is now: 15th October 2021 - 22:02:24