Welcome Guest ( Log In | Register )

> Releases Upload / Добавление релизов

Добавить релиз тут / Click here to add release
Рекомендованные обменники / Recommended file shares

> Leif - Nardol [ep] (2019), Melodic Black Metal
post Oct 13 2021, 18:31:05
Post #1

Мегаманьяк
***********
Group: Металариец
Posts: 1,770
Releases: 294
On Forums: 12 years 11 months
Thanks: 6762 time(s)
Russian Federation


(IMG:http://metalarea.org/images/audiocovers/2021_Oct/acov_tid356673_thumb.jpg)

*Artist: Leif
*Album: Nardol [ep]
*Year: 2019
*Genre: Melodic Black Metal
*Country: Germany (IMG:http://metalarea.org/forum/style_images/flags/Germany.png)
*Format: mp3@CBR320kbps
*Size: 44MB

Tracklist:
01. Distance 07:12
02. Rise 05:08
03. Mountain 07:01
******************************
Total playing time: 19:21


(IMG:http://metalarea.org/images/youtube.png)


Extended info







Released May 22, 2019

***FLAC-Rip***


Technical info
(IMG:http://metalarea.org/images/spectrogram/2021_Oct/21153cedccc97336eae2b7afe2df31d9.png)
Input File: 01-Distance.mp3
Channels : 2
Sample Rate : 44100
Precision : 16-bit
Duration : 00:07:12.85 = 19088685 samples = 32463.8 CDDA sectors
File Size : 17.3M
Bit Rate : 320k
Sample Encoding: MPEG audio (layer I, II or III)
Comments :
Title=Distance
Artist=Leif
Album=Nardol
Tracknumber=1
Year=2019
Genre=Melodic Black Metal



Register


Go to the top of the page
  Insert nick Quick quote
+Quote Post
 
Start new topic
Replies (1 - 1)
post Yesterday, 17:16:38
Post #2

Мегаманьяк
***********
Group: Металариец
Posts: 1,770
Releases: 294
On Forums: 12 years 11 months
Thanks: 6762 time(s)
Russian Federation


FLAC tracks
Register


Thanks:
(1) Marek,
Go to the top of the page
  Insert nick Quick quote
+Quote Post

Reply to this topicStart new topic
1 User(s) are reading this topic (1 Guests and 0 Anonymous Users)
0 Members:

 



- Lo-Fi Version Support form
Copyrights and abuse reports form
Time is now: 15th October 2021 - 22:14:18