Welcome Guest ( Log In | Register )

> Releases Upload / Добавление релизов

Добавить релиз тут / Click here to add release
Рекомендованные обменники / Recommended file shares

 
Reply to this topicStart new topic
> Planet Of The Dead - Pilgrims (2021), Stoner/Sludge/Doom Metal
post Oct 13 2021, 18:32:45
Post #1

Правь статус, ####!111
**************
Group: Металариец
Posts: 4,336
Releases: 3979
From: Одесса
On Forums: 13 years 4 months
Thanks: 43954 time(s)
Ukraine


(IMG:http://metalarea.org/images/audiocovers/2021_Oct/acov_tid356674_thumb.jpg)

*Artist: Planet Of The Dead
*Album: Pilgrims
*Year: 2021
*Genre: Stoner/Sludge/Doom Metal
*Country: New Zealand (IMG:http://metalarea.org/forum/style_images/flags/New%20Zealand.png)
*Format: mp3@CBR320kbps
*Size: 91MB

Tracklist:
1. Gom Jabbar 04:22
2. Pilgrim 05:03
3. Nostromo 04:12
4. The Sprawl 06:06
5. Escape from Smith's Grove 03:47
6. Directive IV 03:38
7. The Cursed Earth 04:35
8. The Great Wave 06:32
******************************
Total playing time: 38:15



Extended info
Line - up:

Kees Hengst - Bass
Dion Harris - Drums (Fall of Man)
Malcolm McKenzie - Guitars
Mark Mundell - Vocals


Technical info
(IMG:http://metalarea.org/images/spectrogram/2021_Oct/4a2398d48d66d78747a6954e11587d89.png)
Input File: 05 Escape from Smith\'s Grove.mp3
Channels : 2
Sample Rate : 44100
Precision : 16-bit
Duration : 00:03:47.93 = 10051889 samples = 17095 CDDA sectors
File Size : 9.12M
Bit Rate : 320k
Sample Encoding: MPEG audio (layer I, II or III)
Comments :
Title=Escape from Smith's Grove
Artist=Planet of the Dead
Album=Pilgrims
Tracknumber=5
Year=2021
Genre=Stoner/Sludge/Doom Metal



Register


Go to the top of the page
  Insert nick Quick quote
+Quote Post

Reply to this topicStart new topic
1 User(s) are reading this topic (1 Guests and 0 Anonymous Users)
0 Members:

 



- Lo-Fi Version Support form
Copyrights and abuse reports form
Time is now: 15th October 2021 - 22:26:53