Welcome Guest ( Log In | Register )

> Releases Upload / Добавление релизов

Добавить релиз тут / Click here to add release
Рекомендованные обменники / Recommended file shares

 
Reply to this topicStart new topic
> Silenced Minstrel - Volume 1 (2017), Black/Gothic Metal
post Oct 13 2021, 18:51:01
Post #1

KPN 666
**************
Group: Металариец
Posts: 2,743
Releases: 1329
From: Тегеран
On Forums: 12 years 3 months
Thanks: 19123 time(s)
Iran


(IMG:http://metalarea.org/images/audiocovers/2021_Oct/acov_tid356675_thumb.jpg)

*Artist: Silenced Minstrel
*Album: Volume 1
*Year: 2017
*Genre: Black/Gothic Metal
*Country: Malaysia (IMG:http://metalarea.org/forum/style_images/flags/Malaysia.png)
*Format: mp3@CBR320kbps
*Size: 98MB

Tracklist:
01. Chaos, Revisited 4:28
02. I Remember... Insanity 5:10
03. Black Hearted Sufi 5:03
04. Twilight Catharsis 4:57
05. Misery, Revisited 7:00
06. Enemy Within Me... 4:42
07. Johnny Demonic 4:04
08. 13th May 69 7:03
******************************
Total playing time: 42:27



Technical info
(IMG:http://metalarea.org/images/spectrogram/2021_Oct/4e9a780e48fbcf69172c7ad291de98e6.png)
Input File: 02. I Remember... Insanity.mp3
Channels : 2
Sample Rate : 44100
Precision : 16-bit
Duration : 00:00:00.31 = 13627 samples = 23.1752 CDDA sectors
File Size : 12.5M
Bit Rate : 324M
Sample Encoding: MPEG audio (layer I, II or III)
Comments :
Title=I Remember... Insanity
Artist=Silenced Minstrel
Album=Vol. 1
Tracknumber=2
Year=2017-01-01
Genre=Alternative & Indie Rock & Metal
Discnumber=1



Register


Go to the top of the page
  Insert nick Quick quote
+Quote Post

Reply to this topicStart new topic
1 User(s) are reading this topic (1 Guests and 0 Anonymous Users)
0 Members:

 



- Lo-Fi Version Support form
Copyrights and abuse reports form
Time is now: 15th October 2021 - 22:38:29