Welcome Guest ( Log In | Register )

> Releases Upload / Добавление релизов

Добавить релиз тут / Click here to add release
Рекомендованные обменники / Recommended file shares

> Vanik - Entrails & Thrills (2021), Heavy/Speed Metal (D4)
post Oct 13 2021, 18:55:35
Post #1

Правь статус, ####!111
**************
Group: Металариец
Posts: 27,653
Releases: 20089
From: Г.Харьков
On Forums: 9 years 5 months
Thanks: 406453 time(s)
Unknown


(IMG:https://metalarea.org/images/audiocovers/2021_Oct/acov_tid356676_thumb.jpg)

*Artist: Vanik
*Album: Entrails & Thrills
*Year: 2021
*Genre: Heavy/Speed Metal
*Country: United States (IMG:https://metalarea.org/forum/style_images/flags/United%20States.png)
*Format: mp3@CBR320kbps
*Size: 72MB

Tracklist:
1. XX Grave
2. Entrails and Thrills
3. The Witch
4. Comin to Get You
5. Evil Warning
6. Vanik's Dead
7. Descending Darkness
8. Mirage
9. Texas Massacre
10. Death in Everyone
******************************
Total playing time: 31:59




Extended info
Ed Stephens Bass
See also: Beyond Fear, Harlot's Grip, Ringworm, Shed the Skin, Shok Paris, Vindicator, Sixx (live), ex-Sinister, ex-Violent Night, Gluttons, ex-Byron Nemeth Group, ex-Destructor, ex-Charred Walls of the Damned (live), ex-Abdullah, ex-Civil Disobedience, ex-Pete
Steve Drums
Vanik Guitars, Vocals
See also: Eternal Legacy, Sixx, Vandallus, Midnight (live), ex-Manimals (live), ex-H.A.T.E., ex-Wretch, ex-Cellbound, ex-Gravity
Vic Stown Guitars (?-2020)
See also: Vandallus, Vindicator, Volcana, ex-Cryptic Stench, ex-Violent Night


Technical info
(IMG:https://metalarea.org/images/spectrogram/2021_Oct/24603a0bfea77de0c1f41534f4abb0df.png)
Input File: 05 - Evil Warning.mp3
Channels : 2
Sample Rate : 44100
Precision : 16-bit
Duration : 00:03:07.20 = 8255652 samples = 14040.2 CDDA sectors
File Size : 7.55M
Bit Rate : 323k
Sample Encoding: MPEG audio (layer I, II or III)
Comments :
Title=Evil Warning
Artist=Vanik
Album=Entrails and Thrills
Tracknumber=5/10
Year=2021



Register


Go to the top of the page
  Insert nick Quick quote
+Quote Post
 
Start new topic
Replies (1 - 1)
post Yesterday, 16:54:24
Post #2

Два Литра
**
Group: Завсегдатай
Posts: 174
Releases: 5
On Forums: 3 years 7 months
Thanks: 473 time(s)
Unknown


...It places the FLAC in the basket...

Register
Go to the top of the page
  Insert nick Quick quote
+Quote Post

Reply to this topicStart new topic
2 User(s) are reading this topic (2 Guests and 0 Anonymous Users)
0 Members:

 



- Lo-Fi Version Support form
Copyrights and abuse reports form
Time is now: 15th October 2021 - 22:20:03