Welcome Guest ( Log In | Register )

> Releases Upload / Добавление релизов

Добавить релиз тут / Click here to add release
Рекомендованные обменники / Recommended file shares

> Flesia - Trost (2021), Black Metal
post Oct 13 2021, 19:07:09
Post #1

Правь статус, ####!111
**************
Group: Металариец
Posts: 27,653
Releases: 20089
From: Г.Харьков
On Forums: 9 years 5 months
Thanks: 406455 time(s)
Unknown


(IMG:https://metalarea.org/images/audiocovers/2021_Oct/acov_tid356677_thumb.jpg)

*Artist: Flesia
*Album: Trost
*Year: 2021
*Genre: Black Metal
*Country: Germany (IMG:https://metalarea.org/forum/style_images/flags/Germany.png)
*Format: mp3@CBR320kbps
*Size: 77MB

Tracklist:
1. Realität 02:10
2. Getrübtes Licht 05:26
3. Dogma 02:12
4. Endlichkeit 02:36
5. Freiwilliger Insasse 03:14
6. Kontrast 05:17
7. Liebende 03:00
8. Endoparasit 04:00
9. Zündglut 05:46
******************************
Total playing time: 33:41




Technical info
(IMG:https://metalarea.org/images/spectrogram/2021_Oct/1d8cfa757ffe38d415ab0aca0be473fe.png)
Input File: 09 - Zündglut.mp3
Channels : 2
Sample Rate : 44100
Precision : 16-bit
Duration : 00:05:46.46 = 15278666 samples = 25984.1 CDDA sectors
File Size : 13.9M
Bit Rate : 320k
Sample Encoding: MPEG audio (layer I, II or III)
Comments :
Title=Zündglut
Artist=Flesia
Album=Trost
Tracknumber=9/9
Year=2021



Register


Go to the top of the page
  Insert nick Quick quote
+Quote Post
 
Start new topic
Replies (1 - 3)
post Yesterday, 07:19:32
Post #2

Три Литра
***
Group: Завсегдатай
Posts: 295
Releases: 1
From: минск сити
On Forums: 12 years 3 months
Thanks: 133 time(s)
Belarus


Неплохо так, плотный звук, может и простовато, но всё в тему сделано, с душой.
Go to the top of the page
  Insert nick Quick quote
+Quote Post
post Yesterday, 12:24:02
Post #3

Литр
*
Group: Подсевший
Posts: 96
Releases: 0
From: Volgograd
On Forums: 12 years 5 months
Thanks: 47 time(s)
Russian Federation


По прослушивании первых треков, ощутимо пахнУло Marduk'ом. Ммм, этот аромат чумной агонии в пляске смерти...
Go to the top of the page
  Insert nick Quick quote
+Quote Post
post Yesterday, 16:58:48
Post #4

Два Литра
**
Group: Завсегдатай
Posts: 174
Releases: 5
On Forums: 3 years 7 months
Thanks: 476 time(s)
Unknown


...Congratulations, it's a healthy baby FLAC...

Register


Thanks:
(1) Marek,
Go to the top of the page
  Insert nick Quick quote
+Quote Post

Reply to this topicStart new topic
2 User(s) are reading this topic (2 Guests and 0 Anonymous Users)
0 Members:

 



- Lo-Fi Version Support form
Copyrights and abuse reports form
Time is now: 15th October 2021 - 22:32:32