Welcome Guest ( Log In | Register )

> Releases Upload / Добавление релизов

Добавить релиз тут / Click here to add release
Рекомендованные обменники / Recommended file shares

 
Reply to this topicStart new topic
> Silenced Minstrel - Volume 2 (2018), Black/Gothic Metal
post Oct 13 2021, 19:21:10
Post #1

KPN 666
**************
Group: Металариец
Posts: 2,743
Releases: 1329
From: Тегеран
On Forums: 12 years 3 months
Thanks: 19121 time(s)
Iran


(IMG:http://metalarea.org/images/audiocovers/2021_Oct/acov_tid356678_thumb.jpg)

*Artist: Silenced Minstrel
*Album: Volume 2
*Year: 2018
*Genre: Black/Gothic Metal
*Country: Malaysia (IMG:http://metalarea.org/forum/style_images/flags/Malaysia.png)
*Format: mp3@CBR320kbps
*Size: 101MB

Tracklist:
01. Into the Void 4:27
02. Morbid Endings I Wished for Them 4:44
03. I Shall Miss Quintessa 5:42
04. (Blood Red Flowers) Bleeding Moon 5:07
05. Entangled in Thorns 6:10
06. Another Black Year 6:39
07. Dark Deceptions 4:26
08. Another Black Year 6:39
******************************
Total playing time: 43:54



Technical info
(IMG:http://metalarea.org/images/spectrogram/2021_Oct/485a61da00ac2e189369818c2627ee97.png)
Input File: 02. Morbid Endings I Wished for Them.mp3
Channels : 2
Sample Rate : 44100
Precision : 16-bit
Duration : 00:00:00.28 = 12524 samples = 21.2993 CDDA sectors
File Size : 11.5M
Bit Rate : 324M
Sample Encoding: MPEG audio (layer I, II or III)
Comments :
Title=Morbid Endings I Wished for Them
Artist=Silenced Minstrel
Album=Silenced Minstrel, Vol. II
Tracknumber=2
Year=2018-11-01
Genre=Alternative & Indie Rock & Metal
Discnumber=1



Register


Go to the top of the page
  Insert nick Quick quote
+Quote Post

Reply to this topicStart new topic
2 User(s) are reading this topic (2 Guests and 0 Anonymous Users)
0 Members:

 



- Lo-Fi Version Support form
Copyrights and abuse reports form
Time is now: 15th October 2021 - 20:32:26