Welcome Guest ( Log In | Register )

> Releases Upload / Добавление релизов

Добавить релиз тут / Click here to add release
Рекомендованные обменники / Recommended file shares

 
Reply to this topicStart new topic
> Planleft - Honor The Struggle (2021), Thrash/Groove Metal
post Oct 13 2021, 19:28:23
Post #1

Правь статус, ####!111
**************
Group: Металариец
Posts: 27,653
Releases: 20089
From: Г.Харьков
On Forums: 9 years 5 months
Thanks: 406426 time(s)
Unknown


(IMG:https://metalarea.org/images/audiocovers/2021_Oct/acov_tid356679_thumb.jpg)

*Artist: Planleft
*Album: Honor The Struggle
*Year: 2021
*Genre: Thrash/Groove Metal
*Country: Croatia (IMG:https://metalarea.org/forum/style_images/flags/Croatia.png)
*Format: mp3@CBR320kbps
*Size: 117MB

Tracklist:
1. Accessory of the Exquisite 07:19
2. Neon Glow 07:18
3. Planned Obsolescence 06:40
4. Back to Life 07:04
5. Gripping Motion 05:30
6. The Grain of Life 04:23
7. Defiled 05:13
8. Honor the Struggle 07:36
******************************
Total playing time: 51:03




Extended info
FLAC - Rip
Denis Pauna Everything (2020-present)
See also: Clean Petrol


Technical info
(IMG:https://metalarea.org/images/spectrogram/2021_Oct/561ccede48ecac9af6a567f9f06a41fe.png)
Input File: 08 - Honor The Struggle.mp3
Channels : 2
Sample Rate : 44100
Precision : 16-bit
Duration : 00:07:36.96 = 20151892 samples = 34271.9 CDDA sectors
File Size : 18.4M
Bit Rate : 322k
Sample Encoding: MPEG audio (layer I, II or III)
Comments :
Title=Honor The Struggle
Artist=Planleft
Album=Honor The Struggle
Tracknumber=8/8
Year=2021



Register


Go to the top of the page
  Insert nick Quick quote
+Quote Post

Reply to this topicStart new topic
2 User(s) are reading this topic (2 Guests and 0 Anonymous Users)
0 Members:

 



- Lo-Fi Version Support form
Copyrights and abuse reports form
Time is now: 15th October 2021 - 20:48:25