Welcome Guest ( Log In | Register )

> Releases Upload / Добавление релизов

Добавить релиз тут / Click here to add release
Рекомендованные обменники / Recommended file shares

 
Reply to this topicStart new topic
> Silenced Minstrel - Vol. 3 (2019), Black/Gothic Metal
post Oct 13 2021, 19:31:25
Post #1

KPN 666
**************
Group: Металариец
Posts: 2,790
Releases: 1374
From: Тегеран
On Forums: 12 years 5 months
Thanks: 19618 time(s)
Iran


(IMG:http://metalarea.org/images/audiocovers/2021_Oct/acov_tid356680_thumb.jpg)

*Artist: Silenced Minstrel
*Album: Vol. 3
*Year: 2019
*Genre: Black/Gothic Metal
*Country: Malaysia (IMG:http://metalarea.org/forum/style_images/flags/Malaysia.png)
*Format: mp3@CBR320kbps
*Size: 90MB

Tracklist:
01. Valedictory Sigh 4:44
02. Demonic Epiphany 3:56
03. In Memoriam (Undertaker's Lament) 4:40
04. In Memoriam (I Will Keep on Going) 4:40
05. Laying Down the Wreaths 4:55
06. Merentap Tirai Senja 5:13
07. Incantations in Tongues 5:30
08. Valedictory Sigh (Reprise) 4:44
******************************
Total playing time: 38:22



Technical info
(IMG:http://metalarea.org/images/spectrogram/2021_Oct/8c7d3b8a5ff38e7cb6d2f5dc373fc27f.png)
Input File: 02. Demonic Epiphany.mp3
Channels : 2
Sample Rate : 44100
Precision : 16-bit
Duration : 00:00:00.24 = 10364 samples = 17.6259 CDDA sectors
File Size : 9.69M
Bit Rate : 330M
Sample Encoding: MPEG audio (layer I, II or III)
Comments :
Title=Demonic Epiphany
Artist=Silenced Minstrel
Album=Silenced Minstrel, Vol. 3
Tracknumber=2
Year=2019-10-01
Genre=Alternative & Indie Rock & Metal
Discnumber=1



Register


Go to the top of the page
  Insert nick Quick quote
+Quote Post

Reply to this topicStart new topic
1 User(s) are reading this topic (1 Guests and 0 Anonymous Users)
0 Members:

 



- Lo-Fi Version Support form
Copyrights and abuse reports form
Time is now: 9th December 2021 - 05:52:20